Today is a free download without charge Download

Снежная королева 2: Перезаморозка / Снежная королева 2: Перезаморозка (Алексей Цицилин) [2014 г., мультфильм, фэнтези, комедия, приключения, семейный,WEB-DLRip ] (Оригинальное)

Reply to topic
 
Author
Message

Clavik ®

Gender:

Longevity: 5 years 7 months

Posts: 1276

Location: Украина

Торрент-статистика

Post 29-Jan-2015 01:57

[Quote]

-Снежная королева 2: Перезаморозка-- Производство: Россия / Базелевс Продакшн, Wizart Animation
Режиссер: Алексей Цицилин
Жанр: мультфильм, фэнтези, комедия, приключения, семейный
Год выпуска: 2014 г.
Продолжительность: 01:13:26
Мировая премьера: 12 декабря 2014
Российская премьера: 1 января 2015, «Двадцатый Век Фокс СНГ»,
Перевод: Не требуется
Оригинальный аудиопоток: русский
Роли озвучивали: Иван Охлобыстин, Нюша Шурочкина, Анна Хилькевич, Александр Уман, Игорь Бортник, Алексей Лихницкий, Роман Юнусов, Александр Гудков, Михаил Тихонов-Описание: Тщеславный тролль Орм давно мечтает о лаврах героя, и наконец получает этот шанс: северный ветер грозит миру вечной зимой и похищает Марибель. Рука принцессы и королевство троллей достанутся тому, кто вызволит ее из снежного плена. Однажды Орм победил зиму с помощью друзей, теперь он хочет действовать в одиночку. На нем доспехи из сковородок, за ним — отряд трусливых троллей, а впереди — опасный путь к замку Снежной королевы. Но, к счастью, друзья не помнят обид: храбрая Герда, застенчивый Кай, удалая Альфида и весёлая Лута не бросят Орма в беде. А значит их ждут невероятные приключения!-Сэмпл IMDB КиноПоиск
Качество видео: WEB-DLRip
Контейнер: AVI
Видео кодек: XviD
Аудио кодек: AC3
Видео: 720x304 (2.37:1), 24 fps, XviD build 50 ~2105 kbps avg, 0.40 bit/pixel
Аудио: 48 kHz, AC3 Dolby Digital, 3/2 (L,C,R,l,r) + LFE ch, ~384 kbps
Cубтитры: отсутствуют

Media Info

General
Complete name : W:\Snegnaya.K0roleva.2014.O.WEB-DLRip.1400Mb.avi
Format : AVI
Format/Info : Audio Video Interleave
File size : 1.37 GiB
Duration : 1h 18mn
Overall bit rate : 2 499 Kbps
Writing application : VirtualDubMod 1.5.10.2 (build 2540/release)
Writing library : VirtualDubMod build 2540/release
Video
ID : 0
Format : MPEG-4 Visual
Format profile : Advanced Simple@L5
Format settings, BVOP : Yes
Format settings, QPel : No
Format settings, GMC : No warppoints
Format settings, Matrix : Default (MPEG)
Codec ID : XVID
Codec ID/Hint : XviD
Duration : 1h 18mn
Bit rate : 2 106 Kbps
Width : 720 pixels
Height : 304 pixels
Display aspect ratio : 2.35:1
Frame rate : 24.000 fps
Color space : YUV
Chroma subsampling : 4:2:0
Bit depth : 8 bits
Scan type : Progressive
Bits/(Pixel*Frame) : 0.401
Stream size : 1.15 GiB (84%)
Writing library : XviD 1.2.1 (UTC 2008-12-04)
Audio
ID : 1
Format : AC-3
Format/Info : Audio Coding 3
Mode extension : CM (complete main)
Codec ID : 2000
Duration : 1h 18mn
Bit rate mode : Constant
Bit rate : 384 Kbps
Channel(s) : 6 channels
Channel positions : Front: L C R, Side: L R, LFE
Sampling rate : 48.0 KHz
Bit depth : 16 bits
Stream size : 215 MiB (15%)
Alignment : Split accross interleaves
Interleave, duration : 42 ms (1.00 video frame)
Interleave, preload duration : 500 ms

Скриншоты

       

_________________


Other forum [Profile] [PM]

Dracula

Longevity: 5 years 7 months

Posts: 10099

Торрент-статистика

Post 02-Jan-2016 08:20 (after 11 months 4 days)

Топик был перенесен из форума Новинки (HD|DVD|BD|WEB|TV|SAT|PDTV|-Rip) в форум Фильмы 2011-2015


Геннадич
 

Dracula

Longevity: 5 years 7 months

Posts: 10099

Торрент-статистика

Post 02-Jan-2016 08:43 (after 11 months 4 days)

Топик был перенесен из форума Фильмы 2011-2015 в форум Иностранные мультфильмы


Геннадич
 
Display posts from previous:    
Reply to topic

The time now is: Today 07:06

All times are GMT + 3 Hours



You cannot post new topics in this forum
You cannot reply to topics in this forum
You cannot edit your posts in this forum
You cannot delete your posts in this forum
You cannot vote in polls in this forum
You cannot attach files in this forum
You cannot download files in this forum