Today is a free download without charge Download

(Heavy Metal) [CD] Ozzy Osbourne - No More Tears - 1991, FLAC (image+.cue), lossless

Reply to topic
 
Author
Message

Omen ®

Longevity: 7 years 3 months

Posts: 181087

Торрент-статистика

Post 02-Dec-2015 21:01

[Quote]

Ozzy Osbourne / No More Tears
Жанр: Heavy Metal
Носитель: CD
Страна-производитель диска (релиза): USA
Год издания: 1991
Издатель (лейбл): Epic
Номер по каталогу: ZK 46795
Страна исполнителя (группы): UK
Аудиокодек: FLAC (*.flac)
Тип рипа: image+.cue
Битрейт аудио: lossless
Продолжительность: 57:07
Источник (релизер): Свой CD
Наличие сканов в содержимом раздачи: да
Треклист:
01] Mr. Tinkertrain
02] I Don't Want To Change The World
03] Mama, I'm Coming Home
04] Desire
05] No More Tears
06] S.I.N.
07] Hellraiser
08] Time After Time
09] Zombie Stomp
10] A.V.H.
11] Road To Nowhere

Лог создания рипа

Exact Audio Copy V1.1 from 23. June 2015
Отчёт EAC об извлечении, выполненном 3. декабря 2015, 0:34
Ozzy Osbourne / No More Tears (ZK_46795)
Дисковод: HL-DT-STDVDRAM GT32N Adapter: 1 ID: 0
Режим чтения : ДостоверностьИспользование точного потока : ДаОтключение кэша аудио : ДаИспользование указателей C2 : Нет
Коррекция смещения при чтении : 103Способность читать области Lead-in и Lead-out : НетЗаполнение пропущенных сэмплов тишиной : ДаУдаление блоков с тишиной в начале и конце : НетПри вычислениях CRC использовались нулевые сэмплы : ДаИнтерфейс : Встроенный Win32-интерфейс для Win NT/2000
Выходной формат : Пользовательский кодировщикВыбранный битрейт : 1024 kBit/sКачество : ВысокийДобавление ID3-тега : НетУтилита сжатия : C:\Program Files\Exact Audio Copy\Flac\flac.exeДополнительные параметры : -V -8 -T "Date=%year%" -T "Genre=%genre%" %source%
TOC извлечённого CD
Трек | Старт | Длительность | Начальный сектор | Конечный сектор --------------------------------------------------------------------- 1 | 0:00.00 | 5:58.00 | 0 | 26849 2 | 5:58.00 | 4:06.22 | 26850 | 45321 3 | 10:04.22 | 4:12.15 | 45322 | 64236 4 | 14:16.37 | 5:45.70 | 64237 | 90181 5 | 20:02.32 | 7:24.30 | 90182 | 123511 6 | 27:26.62 | 4:47.50 | 123512 | 145086 7 | 32:14.37 | 4:53.35 | 145087 | 167096 8 | 37:07.72 | 4:20.63 | 167097 | 186659 9 | 41:28.60 | 6:14.00 | 186660 | 214709 10 | 47:42.60 | 4:13.12 | 214710 | 233696 11 | 51:55.72 | 5:10.63 | 233697 | 257009
Характеристики диапазона извлечения и сообщения об ошибках
Выбранный диапазон
Имя файла D:\Ozzy Osbourne 1991 No More Tears(USA)\Ozzy Osbourne - No More Tears (ZK_46795).wav
Пиковый уровень 97.3 % Скорость извлечения 2.1 X Качество диапазона 100.0 % CRC теста C7636412 CRC копии C7636412 Копирование... OK
Ошибок не произошло
AccurateRip: сводка
Трек 1 : извлечено точно (доверие 8) [C06BD3F2] (AR v2)Трек 2 : извлечено точно (доверие 8) [A1047F57] (AR v2)Трек 3 : извлечено точно (доверие 8) [74842871] (AR v2)Трек 4 : извлечено точно (доверие 8) [885960E3] (AR v2)Трек 5 : извлечено точно (доверие 8) [EA7C9D7A] (AR v2)Трек 6 : извлечено точно (доверие 8) [A6FFB6FF] (AR v2)Трек 7 : извлечено точно (доверие 8) [4DAB7D5A] (AR v2)Трек 8 : извлечено точно (доверие 8) [6EFB186A] (AR v2)Трек 9 : извлечено точно (доверие 8) [5BB2D67A] (AR v2)Трек 10 : извлечено точно (доверие 8) [C3D8DEB6] (AR v2)Трек 11 : извлечено точно (доверие 8) [59DA662F] (AR v2)
Все треки извлечены точно
Конец отчёта
---- CUETools DB Plugin V2.1.6
[CTDB TOCID: O8BT6OIHvdiFdC9tKaMftjr0v1Y-] foundSubmit result: O8BT6OIHvdiFdC9tKaMftjr0v1Y- has been confirmedTrack | CTDB Status 1 | (31/31) Accurately ripped 2 | (30/31) Accurately ripped 3 | (30/31) Accurately ripped 4 | (30/31) Accurately ripped 5 | (29/31) Accurately ripped 6 | (29/31) Accurately ripped 7 | (29/31) Accurately ripped 8 | (29/31) Accurately ripped 9 | (29/31) Accurately ripped 10 | (28/31) Accurately ripped 11 | (28/31) Accurately ripped
==== Контрольная сумма отчёта F87FC2FDD4B9B382CED9CAAD3F2A98ABB4BB7445C2E364DDDEF3AA10B07D7A4A ====

Содержание индексной карты (.CUE)

REM GENRE "Heavy Metal"REM DATE 1991REM DISCID 970D620BREM COMMENT "ExactAudioCopy v1.1"PERFORMER "Ozzy Osbourne"TITLE "No More Tears (ZK_46795)"FILE "Ozzy Osbourne - No More Tears (ZK_46795).flac" WAVE TRACK 01 AUDIO TITLE "Mr. Tinkertrain" PERFORMER "Ozzy Osbourne" INDEX 01 00:00:00 TRACK 02 AUDIO TITLE "I Don't Want To Change The World" PERFORMER "Ozzy Osbourne" INDEX 00 05:56:30 INDEX 01 05:58:00 TRACK 03 AUDIO TITLE "Mama, I'm Coming Home" PERFORMER "Ozzy Osbourne" INDEX 01 10:04:22 TRACK 04 AUDIO TITLE "Desire" PERFORMER "Ozzy Osbourne" INDEX 01 14:16:37 TRACK 05 AUDIO TITLE "No More Tears" PERFORMER "Ozzy Osbourne" INDEX 00 20:02:12 INDEX 01 20:02:32 TRACK 06 AUDIO TITLE "S.I.N." PERFORMER "Ozzy Osbourne" INDEX 00 27:26:00 INDEX 01 27:26:62 TRACK 07 AUDIO TITLE "Hellraiser" PERFORMER "Ozzy Osbourne" INDEX 01 32:14:37 TRACK 08 AUDIO TITLE "Time After Time" PERFORMER "Ozzy Osbourne" INDEX 01 37:07:72 TRACK 09 AUDIO TITLE "Zombie Stomp" PERFORMER "Ozzy Osbourne" INDEX 01 41:28:60 TRACK 10 AUDIO TITLE "A.V.H." PERFORMER "Ozzy Osbourne" INDEX 01 47:42:60 TRACK 11 AUDIO TITLE "Road To Nowhere" PERFORMER "Ozzy Osbourne" INDEX 01 51:55:72
Other forum [Profile] [PM]
Display posts from previous:    
Reply to topic

The time now is: Today 10:17

All times are GMT + 3 Hours



You cannot post new topics in this forum
You cannot reply to topics in this forum
You cannot edit your posts in this forum
You cannot delete your posts in this forum
You cannot vote in polls in this forum
You cannot attach files in this forum
You cannot download files in this forum