Today is a free download without charge Download

С любовью из 80-х в 3Д / 3D (Евгений Жёлтиков) [2015, анимация, любительский мультфильм, драма, HDTVrip-AVC] Half SideBySide / Горизонтальная анаморфная стереопара

Reply to topic
 
Author
Message

Omen ®

Longevity: 7 years 8 months

Posts: 181087

Торрент-статистика

Post 29-Nov-2015 12:07

[Quote]

С любовью из 80-х в 3D
Год выпуска: 2015
Страна: Россия
Студия: Enagel United
Жанр: анимация, любительский мультфильм, драма
Продолжительность: 00:15:36
Озвучка: Одноголосная (любительская) + субтитры (когда персонажи думают)
Режиссер: Евгений Жёлтиков
Описание: Действие происходит в 1988 году. История о 3-х молодых людях. Стив долгое время был влюблён в Джоанну, но когда решил признаться ей в своих чувствах, она ему отказала, но он не отступает... это может сильно не понравится Грэгу, парню Джоанны...
Дополнительная информация по релизу: Анимационный фильм создан в "The Movies", но там нет ни плагина, ни мода, ни функции по созданию 3D видео, поэтому всё делал вручную двумя виртуальными камерами.
Качество: HDTVrip
Контейнер: MP4
Формат 3D: Half SideBySide / Горизонтальная анаморфная стереопара
Порядок ракурсов: левый ракурс первый
Видео кодек: AVC
Аудио кодек: AAC
Видео: MP4, PAL, 1280x720, 16:9, 6714 Кбит/сек, 25,000 кадр/сек
Аудио: Русский, AAC, 2 канала, 48,0 КГц, 320 Кбит/сек

MediaInfo

General
Format : MPEG-4
Format profile : Base Media / Version 2
Codec ID : mp42
File size : 786 MiB
Duration : 15mn 36s
Overall bit rate mode : Variable
Overall bit rate : 7 039 Kbps
Encoded date : UTC 2015-11-07 12:57:12
Tagged date : UTC 2015-11-07 12:57:12
Video
ID : 2
Format : AVC
Format/Info : Advanced Video Codec
Format profile : High@L4
Format settings, CABAC : Yes
Format settings, ReFrames : 2 frames
Muxing mode : Container profile=Baseline@3.1
Codec ID : avc1
Codec ID/Info : Advanced Video Coding
Duration : 15mn 36s
Bit rate mode : Variable
Bit rate : 6 714 Kbps
Maximum bit rate : 16.0 Mbps
Width : 1 280 pixels
Height : 720 pixels
Display aspect ratio : 16:9
Frame rate mode : Constant
Frame rate : 25.000 fps
Color space : YUV
Chroma subsampling : 4:2:0
Bit depth : 8 bits
Scan type : Progressive
Bits/(Pixel*Frame) : 0.291
Stream size : 750 MiB (95%)
Language : Russian
Encoded date : UTC 2015-11-07 12:57:12
Tagged date : UTC 2015-11-07 12:57:12
Audio
ID : 1
Format : AAC
Format/Info : Advanced Audio Codec
Format profile : LC
Codec ID : 40
Duration : 15mn 36s
Bit rate mode : Constant
Bit rate : 320 Kbps
Channel(s) : 2 channels
Channel positions : Front: L R
Sampling rate : 48.0 KHz
Compression mode : Lossy
Stream size : 35.7 MiB (5%)
Language : Russian
Encoded date : UTC 2015-11-07 12:57:12
Tagged date : UTC 2015-11-07 12:57:12

Скриншоты




Other forum [Profile] [PM]
Display posts from previous:    
Reply to topic

The time now is: Today 21:12

All times are GMT + 3 Hours



You cannot post new topics in this forum
You cannot reply to topics in this forum
You cannot edit your posts in this forum
You cannot delete your posts in this forum
You cannot vote in polls in this forum
You cannot attach files in this forum
You cannot download files in this forum