Today is a free download without charge Download

Пиджак / The Jacket (Джон Мэйбери) [2004 г., детектив, триллер, фантастика, драма, BDRip-AVC]

Reply to topic
 
Author
Message

Region_13 ®

Gender:

Longevity: 6 years 6 months

Posts: 782

Location: Мальдивы

Торрент-статистика

Post 21-Nov-2015 11:55

[Quote]

Пиджак / The Jacket
Год выпуска: 2004
Страна: США, Германия
Жанр: детектив, триллер, фантастика, драма
Продолжительность: 102 мин. / 01:42
Перевод: Русский дублированный + Русский профессиональный перевод (Tycoon-Studio)

Режиссер: Джон Мэйбери
Продюссер: Джордж Клуни, Питер Губер, Стивен Содерберг
Сценарий: Мэсси Таджедин, Том Бликер, Марк Рокко
Бюджет: $29 000 000
Премьера в мире: 23 января 2005
лицам до 17 лет обязательно присутствие взрослого


В ролях: Эдриан Броуди, Кира Найтли, Крис Кристофферсон, Дженнифер Джейсон Ли, Келли Линч, Брэд Ренфро, Дэниэл Крэйг, Стивен Макинтош, Брендан Койл, МакКензи Филлипс
Описание: Ветеран войны в Персидском заливе Джек Старкс поправляется после ранения в голову. Он возвращается в родной штат Вермонт, но ранение дает о себе знать приступами амнезии. Когда Старкса обвиняют в убийстве полицейского, его направляют на психиатрическую экспертизу.
Доктор Беккер использует экспериментальные методы лечения, вводя Старксу новейшие препараты. После инъекций Старксу надевают смирительную рубашку и помещают в подвал. В наркотическом опьянении мысли Старкса устремляются в будущее, где он встречает Джеки и узнает, что ему осталось жить 4 дня. Вместе с Джеки он ищет возможность убежать от судьбы.

Качество: BDRip-AVC
Формат: MKV
Видео кодек: H.26x
Аудио кодек: AC3
Видео: H.264 / 1016 x 420 / 2.40:1 / 2706 kbps / 23,976 fps
Аудио: Русский / AC3 Dolby Digital / 48 KHz / 448 kbps / 3/2 (L,C,R,l,r) + LFE ch
Аудио 2: Русский / AC3 Dolby Digital / 48 KHz / 448 kbps / 3/2 (L,C,R,l,r) + LFE ch
Аудио 3: AC3 Dolby Digital / 48 KHz / 448 kbps / 3/2 (L,C,R,l,r) + LFE ch
Формат субтитров: softsub (SRT)

Скриншоты

                   

MEDIAINFO

Общее
Уникальный идентификатор : 243043566064153429008616669611615302173 (0xB6D87CF88942AED2AD0D97F89E5BB21D)
Полное имя : E:\Pidzhak.2004.TRIPLE.BDRip-AVC.AC3.-HQ-ViDEO.mkv
Формат : Matroska
Версия формата : Version 2
Размер файла : 2,91 Гбайт
Продолжительность : 1 ч. 42 м.
Общий поток : 4051 Кбит/сек
Название фильма : Pidzhak / 2004 /
Дата кодирования : UTC 2011-09-19 12:25:15
Программа кодирования : mkvmerge v4.9.1 ('Ich will') сборка от Jul 11 2011 23:53:15
Библиотека кодирования : libebml v1.2.1 + libmatroska v1.1.1
Видео
Идентификатор : 1
Формат : AVC
Формат/Информация : Advanced Video Codec
Профиль формата : High@L4.1
Параметр CABAC формата : Да
Параметр ReFrames формата : 8 кадров
Идентификатор кодека : V_MPEG4/ISO/AVC
Продолжительность : 1 ч. 42 м.
Битрейт : 2706 Кбит/сек
Ширина : 1016 пикселей
Высота : 420 пикселей
Соотношение сторон : 2,40:1
Режим частоты кадров : Постоянный
Частота кадров : 23,976 кадра/сек
Цветовое пространство : YUV
Субдискретизация насыщенности : 4:2:0
Битовая глубина : 8 бит
Тип развёртки : Прогрессивная
Бит/(Пиксели*Кадры) : 0.264
Размер потока : 1,89 Гбайт (65%)
Заголовок : BDRip 19/09/2011
Библиотека кодирования : x264 core 116 r2074 2641b9e
Настройки программы : cabac=1 / ref=8 / deblock=1:-2:-1 / analyse=0x3:0x113 / me=umh / subme=10 / psy=1 / psy_rd=0.95:0.05 / mixed_ref=1 / me_range=48 / chroma_me=1 / trellis=2 / 8x8dct=1 / cqm=0 / deadzone=21,11 / fast_pskip=0 / chroma_qp_offset=-2 / threads=12 / sliced_threads=0 / nr=0 / decimate=1 / interlaced=0 / bluray_compat=0 / constrained_intra=0 / bframes=12 / b_pyramid=2 / b_adapt=2 / b_bias=0 / direct=3 / weightb=1 / open_gop=0 / weightp=2 / keyint=250 / keyint_min=23 / scenecut=40 / intra_refresh=0 / rc_lookahead=40 / rc=2pass / mbtree=0 / bitrate=2706 / ratetol=1.0 / qcomp=0.60 / qpmin=0 / qpmax=69 / qpstep=4 / cplxblur=20.0 / qblur=0.5 / vbv_maxrate=40000 / vbv_bufsize=30000 / nal_hrd=none / ip_ratio=1.40 / pb_ratio=1.30 / aq=2:0.80 / zones=140813,148030,q=35
Язык : English
Default : Да
Forced : Нет
Цветовой диапазон : Limited
Коэффициенты матрицы : BT.709
Аудио #1
Идентификатор : 2
Формат : AC-3
Формат/Информация : Audio Coding 3
Расширение режима : CM (complete main)
Параметр Endianness формата : Big
Идентификатор кодека : A_AC3
Продолжительность : 1 ч. 42 м.
Вид битрейта : Постоянный
Битрейт : 448 Кбит/сек
Каналы : 6 каналов
Расположение каналов : Front: L C R, Side: L R, LFE
Частота : 48,0 КГц
Метод сжатия : С потерями
Размер потока : 330 Мбайт (11%)
Заголовок : DUB
Язык : Russian
Default : Да
Forced : Да
Аудио #2
Идентификатор : 3
Формат : AC-3
Формат/Информация : Audio Coding 3
Расширение режима : CM (complete main)
Параметр Endianness формата : Big
Идентификатор кодека : A_AC3
Продолжительность : 1 ч. 42 м.
Вид битрейта : Постоянный
Битрейт : 448 Кбит/сек
Каналы : 6 каналов
Расположение каналов : Front: L C R, Side: L R, LFE
Частота : 48,0 КГц
Метод сжатия : С потерями
Размер потока : 330 Мбайт (11%)
Заголовок : MVO | Tycoon-Studio
Язык : Russian
Default : Нет
Forced : Нет
Аудио #3
Идентификатор : 4
Формат : AC-3
Формат/Информация : Audio Coding 3
Расширение режима : CM (complete main)
Параметр Endianness формата : Big
Идентификатор кодека : A_AC3
Продолжительность : 1 ч. 42 м.
Вид битрейта : Постоянный
Битрейт : 448 Кбит/сек
Каналы : 6 каналов
Расположение каналов : Front: L C R, Side: L R, LFE
Частота : 48,0 КГц
Метод сжатия : С потерями
Размер потока : 330 Мбайт (11%)
Заголовок : Original
Язык : English
Default : Нет
Forced : Нет
Текст #1
Идентификатор : 5
Формат : UTF-8
Идентификатор кодека : S_TEXT/UTF8
Идентификатор кодека/Информация : UTF-8 Plain Text
Заголовок : R5
Язык : Russian
Default : Нет
Forced : Нет
Текст #2
Идентификатор : 6
Формат : UTF-8
Идентификатор кодека : S_TEXT/UTF8
Идентификатор кодека/Информация : UTF-8 Plain Text
Заголовок : Tycoon-Studio
Язык : Russian
Default : Нет
Forced : Нет
Текст #3
Идентификатор : 7
Формат : UTF-8
Идентификатор кодека : S_TEXT/UTF8
Идентификатор кодека/Информация : UTF-8 Plain Text
Язык : English
Default : Нет
Forced : Нет
Меню
00:00:00.000 : en:First Time I Died
00:03:44.599 : en:Roadside Aid
00:07:10.805 : en:Committed
00:12:29.248 : en:Morgue Locker Visions
00:16:41.417 : en:Meeting MacKenzie
00:19:28.584 : en:Round Two
00:22:50.828 : en:Christmas Eve With Jackie
00:27:10.212 : en:Snooping
00:30:38.378 : en:Don't You Remember Me?
00:35:53.360 : en:Not a Lab Animal
00:38:28.806 : en:Where Medicine Leaves Off
00:43:26.813 : en:Different Person
00:46:23.406 : en:Giving Becker an Itch
00:51:16.991 : en:The Crazy One
00:56:20.627 : en:Head Trauma
00:59:24.728 : en:How Do You Know?
01:01:49.539 : en:His Own Grave
01:04:44.464 : en:Who Wouldn't Be Nervous?
01:09:45.723 : en:Seeing a Ghost
01:15:02.289 : en:We Haunt You
01:17:59.091 : en:Breakthrough
01:21:42.314 : en:Visiting Jean and Jackie
01:27:48.513 : en:Life After Death
01:32:45.185 : en:Better Now
01:35:29.724 : en:End Credits

_________________
Other forum [Profile] [PM]
Display posts from previous:    
Reply to topic

The time now is: Today 02:16

All times are GMT + 3 Hours



You cannot post new topics in this forum
You cannot reply to topics in this forum
You cannot edit your posts in this forum
You cannot delete your posts in this forum
You cannot vote in polls in this forum
You cannot attach files in this forum
You cannot download files in this forum