Today is a free download without charge Download

Папохищение / Dadnapped (Пол Хоэн) [2009 г., боевик, комедия, приключения, DVDRip]

Reply to topic
 
Author
Message

Region_13 ®

Gender:

Longevity: 6 years 6 months

Posts: 782

Location: Мальдивы

Торрент-статистика

Post 11-Nov-2015 21:37

[Quote]

Папохищение / Dadnapped
Год выпуска: 2009
Страна: США,Walt Disney Pictures
Жанр: боевик, комедия, приключения
Продолжительность: 84 мин. / 01:24
Перевод: Профессиональный(дублированный)
Режиссер: Продюссер: Дуглас Слоун
Сценарий: Алан Сильберберг
Бюджет: $4 500 000
Премьера в мире: 16 февраля 2009
зрителям, достигшим 6 лет


В ролях: Дженнифер Стоун,Джордж Ньюберн,Фил Льюис,Чарльз Халфорд,Дензел Уитакер,Мойзес Ариас,Джонатан Кельтц,Джейсон Эрлз,Дэвид Генри,Эмили Осмент
Описание: Школьница Мелисса — дочь Нила Морриса, знаменитого автора бестселлеров о приключениях супергероя Трип Зума, — с нетерпением ждет каникул, чтобы отправиться с отцом в путешествие. По пути они заворачивают в городок, где в честь писателя устраивается прием. В этот же день его похищают двое фанатов, один из которых — начинающий писатель, решивший использовать Нила в качестве редактора своей будущей книги…

Качество: DVDRip
Формат: AVI
Видео кодек: DivX
Аудио кодек: AC3
Видео: XviD, 1989 Кбит/с, 704x384
Аудио: AC3, 2 ch, 448 Кбит/с

Скриншоты

         

MEDIAINFO

Общее
Полное имя : E:\Папохищение\Dadnapped.epple.nef..avi
Формат : AVI
Формат/Информация : Audio Video Interleave
Размер файла : 1,37 Гбайт
Продолжительность : 1 ч. 20 м.
Общий поток : 2444 Кбит/сек
Название фильма : Dadnapped (2009)
Режиссёр : D!mka
Программа кодирования : VirtualDubMod 1.5.10.2 (build 2540/release)
Библиотека кодирования : VirtualDub build 30009/release
Авторское право : http://www.torrentsmd.com/
Видео
Идентификатор : 0
Формат : MPEG-4 Visual
Профиль формата : Advanced Simple@L5
Параметр BVOP формата : 2
Параметр QPel формата : Нет
Параметр GMC формата : Без точки перехода
Параметр матрицы формата : Default (H.263)
Режим смешивания : Сжатый битовый поток
Идентификатор кодека : XVID
Идентификатор кодека/Подсказка : XviD
Продолжительность : 1 ч. 20 м.
Битрейт : 1986 Кбит/сек
Ширина : 704 пикселя
Высота : 384 пикселя
Соотношение сторон : 1,85:1
Частота кадров : 25,000 кадров/сек
Цветовое пространство : YUV
Субдискретизация насыщенности : 4:2:0
Битовая глубина : 8 бит
Тип развёртки : Прогрессивная
Метод сжатия : С потерями
Бит/(Пиксели*Кадры) : 0.294
Размер потока : 1,11 Гбайт (81%)
Библиотека кодирования : XviD 1.2.1 (UTC 2008-12-04)
Аудио
Идентификатор : 1
Формат : AC-3
Формат/Информация : Audio Coding 3
Расширение режима : CM (complete main)
Параметр Endianness формата : Big
Идентификатор кодека : 2000
Продолжительность : 1 ч. 20 м.
Вид битрейта : Постоянный
Битрейт : 448 Кбит/сек
Каналы : 2 канала
Расположение каналов : Front: L R
Частота : 48,0 КГц
Метод сжатия : С потерями
Размер потока : 257 Мбайт (18%)
Выравнивание : Соединение по промежуткам
Продолжительность промежутка : 40 мс. (1,00 видеокадр)
Время предзагрузки промежутка : 512 мс.

_________________
Other forum [Profile] [PM]
Display posts from previous:    
Reply to topic

The time now is: Today 04:11

All times are GMT + 3 Hours



You cannot post new topics in this forum
You cannot reply to topics in this forum
You cannot edit your posts in this forum
You cannot delete your posts in this forum
You cannot vote in polls in this forum
You cannot attach files in this forum
You cannot download files in this forum