Today is a free download without charge Download

Побег из Гулага / So weit die Füße tragen (Харди Мартинс, Дмитрий Астрахан) [2001 г., боевик, драма, приключения, военный, DVDRip]

Reply to topic
 
Author
Message

Region_13 ®

Gender:

Longevity: 6 years

Posts: 782

Location: Мальдивы

Торрент-статистика

Post 07-Nov-2015 23:56

[Quote]

Побег из Гулага / So weit die Füße tragen
Год выпуска: 2001
Страна: Беларусь, Германия, Россия Cascader Filmproduktion
Жанр: боевик, драма, приключения, военный
Продолжительность: 2:32:16
Перевод: Профессиональный (двухголосый закадровый)
Режиссер: Харди Мартинс, Дмитрий Астрахан
Продюссер: Харди Мартинс
Сценарий: Бернд Швамм, Бастиан Клеве, Харди Мартинс
Бюджет: DEM 15 000 000
Премьера в мире: 27 декабря 2001 г


В ролях: Ханс-Уве Бауэр, Адалберт Майер, Егор Абросимов, Анна Хэрман, Ганс Питер Халльвахс, Бернхард Беттерман, Михаэль Мендль, Анатолий Котенёв, Ирина Пантаева, Айрис Бом, Анна Херрманн
Описание: Немецкий военнопленный Клеменс Форелль был приговорен к заключению на Колыме. Проработав четыре года на шахтах, он в 1949 году бежал из лагеря. По пятам преследуемый НКВД, осознавая, что каждый следующий шаг может стать для него последним, он шел через всю Сибирь и Среднюю Азию к иранской границе. 14 тысяч километров и три бесконечных года, проведенных в странствиях, не смогли сломить его стремление к свободе
Качество: DVDRip
Формат: AVI
Видео кодек: DivX
Аудио кодек: AC3
Видео: 640x368 (1.74:1), 25 fps, XviD build 73 ~887 kbps avg, 0.15 bit/pixel
Аудио: 48 kHz, MPEG Layer 3, 2 ch, ~128.00 kbps avg

Доп.Инфо

Доп. информация: Имя Кленемс Форель — вымышленное. Реальный прототип главного героя носил имя Корнеллиус Рост (нем. Cornelius Rost, 1922-1983). Автор романа использовал другое имя из-за опасений по поводу возможных проблем с КГБ после того, как книга была опубликована в 1955 году.
Оба деда актёра Бернхарда Беттермана, сыгравшего главного героя, по окончании Великой Отечественной войны были отправлены в советские лагеря.
На карте, которую смотрит девочка, обозначен город Нижний Новгород, хотя до 1990 года город носил название Горький.

Отчет MediaInfo

D: рипыPobeg.iz.gulaga.DVDRip.avi
General
Complete name : D: рипыPobeg.iz.gulaga.DVDRip.avi
Format : AVI
Format/Info : Audio Video Interleave
File size : 1.09 GiB
Duration : 2h 32mn
Overall bit rate : 1 025 Kbps
Writing application : VirtualDubMod 1.5.10.3 | www.virtualdub-fr.org || (build 2550/release)
Writing library : VirtualDubMod build 2550/release
Video #0
ID : 0
Format : MPEG-4 Visual
Format profile : Advanced Simple@L5
Format settings, BVOP : 1
Format settings, QPel : No
Format settings, GMC : No warppoints
Format settings, Matrix : Custom
Codec ID : XVID
Codec ID/Hint : XviD
Duration : 2h 32mn
Bit rate : 888 Kbps
Width : 640 pixels
Height : 368 pixels
Display aspect ratio : 16:9
Frame rate : 25.000 fps
Color space : YUV
Chroma subsampling : 4:2:0
Bit depth : 8 bits
Scan type : Progressive
Compression mode : Lossy
Bits/(Pixel*Frame) : 0.151
Stream size : 967 MiB (87%)
Writing library : XviD 73
Audio #1
ID : 1
Format : MPEG Audio
Format version : Version 1
Format profile : Layer 3
Codec ID : 55
Codec ID/Hint : MP3
Duration : 2h 32mn
Bit rate mode : Constant
Bit rate : 128 Kbps
Channel(s) : 2 channels
Sampling rate : 48.0 KHz
Compression mode : Lossy
Stream size : 139 MiB (12%)
Alignment : Aligned on interleaves
Interleave, duration : 40 ms (1.00 video frame)
Interleave, preload duration : 504 ms
Writing library : LAME3.99r
Encoding settings : -m s -V 4 -q 2 -lowpass 17 -b 128

ScreenShots

     

_________________


Last edited by Region_13 on 2015-11-09 12:15; edited 1 time in total
Other forum [Profile] [PM]
Display posts from previous:    
Reply to topic

The time now is: Today 11:35

All times are GMT + 3 Hours



You cannot post new topics in this forum
You cannot reply to topics in this forum
You cannot edit your posts in this forum
You cannot delete your posts in this forum
You cannot vote in polls in this forum
You cannot attach files in this forum
You cannot download files in this forum