Today is a free download without charge Download

(Trip-Hop / Ambient Pop) Violet Indiana (Robin Guthrie of Cocteau Twins) – Casino – 2002 FLAC (image + .cue), lossless

Reply to topic
 
Author
Message

Koralina ®

Longevity: 9 years 5 months

Posts: 994

Location: Lithuania

Торрент-статистика

Post 17-Oct-2011 19:17

[Quote]

Violet Indiana – Casino – 2002 Страна: Англия
Жанр: Trip-Hop / Ambient Pop
Дата выхода: 2002
Формат аудио: FLAC (image + .cue)
Битрэйт: lossless
Продолжительность: 41:35

Трэклист


01. Jailbird (4:28)
02. Bang Bang (3:17)
03. Purr La Perla (2:52)
04. Silent (3:26)
05. Storm (3:47)
06. Sky (3:14)
07. Safe World (3:24)
08. Ne Me Quitte Pas (3:46)
09. Poppy (3:09)
10. Torn Up (2:52)
11. Heaven (2:36)
12. Chapter Three (4:44)

LogEAC

Код:
Exact Audio Copy V0.99 prebeta 4 from 23. January 2008
EAC extraction logfile from 29. October 2008, 10:02
Violet Indiana / Casino
Used drive  : PIONEER DVD-RW  DVR-111D   Adapter: 0  ID: 1
Read mode               : Secure
Utilize accurate stream : Yes
Defeat audio cache      : Yes
Make use of C2 pointers : No
Read offset correction                      : 48
Overread into Lead-In and Lead-Out          : No
Fill up missing offset samples with silence : Yes
Delete leading and trailing silent blocks   : No
Null samples used in CRC calculations       : Yes
Used interface                              : Native Win32 interface for Win NT & 2000
Used output format              : User Defined Encoder
Selected bitrate                : 1024 kBit/s
Quality                         : High
Add ID3 tag                     : No
Command line compressor         : E:\Program Files\FLAC\flac.exe
Additional command line options : -8 -V -T "ARTIST=%a" -T "TITLE=%t" -T "ALBUM=%g" -T "DATE=%y" -T "TRACKNUMBER=%n" -T "GENRE=%m" -T "COMMENT=EAC FLAC -8" %s
TOC of the extracted CD
     Track |   Start  |  Length  | Start sector | End sector
    ---------------------------------------------------------
        1  |  0:00.00 |  4:28.23 |         0    |    20122
        2  |  4:28.23 |  3:16.71 |     20123    |    34893
        3  |  7:45.19 |  2:51.68 |     34894    |    47786
        4  | 10:37.12 |  3:25.57 |     47787    |    63218
        5  | 14:02.69 |  3:47.04 |     63219    |    80247
        6  | 17:49.73 |  3:14.06 |     80248    |    94803
        7  | 21:04.04 |  3:23.53 |     94804    |   110081
        8  | 24:27.57 |  3:46.22 |    110082    |   127053
        9  | 28:14.04 |  3:09.18 |    127054    |   141246
       10  | 31:23.22 |  2:52.21 |    141247    |   154167
       11  | 34:15.43 |  2:35.40 |    154168    |   165832
       12  | 36:51.08 |  4:44.01 |    165833    |   187133
       13  | 44:07.09 | 16:11.10 |    198534    |   271368
Range status and errors
Selected range
     Filename E:\TORRENTS\TORRENTS RELEASES\LOSSLESS\Violet Indiana - 2002 - Casino\Violet Indiana - Casino.wav
     Peak level 99.1 %
     Range quality 99.9 %
     Test CRC 59040CFB
     Copy CRC 59040CFB
     Copy OK
No errors occurred
AccurateRip summary
Track  1  cannot be verified as accurate (confidence 2)  [50A859DF], AccurateRip returned [A751D58E]
Track  2  cannot be verified as accurate (confidence 2)  [3E0B9BA6], AccurateRip returned [78E7B47E]
Track  3  cannot be verified as accurate (confidence 2)  [76BA131D], AccurateRip returned [A08637ED]
Track  4  cannot be verified as accurate (confidence 2)  [57B88ABA], AccurateRip returned [96A55A36]
Track  5  cannot be verified as accurate (confidence 2)  [032F5458], AccurateRip returned [1F41D5E4]
Track  6  cannot be verified as accurate (confidence 2)  [4BD983A6], AccurateRip returned [1C78D1FA]
Track  7  cannot be verified as accurate (confidence 2)  [BB27ABF2], AccurateRip returned [F7A5EC78]
Track  8  cannot be verified as accurate (confidence 2)  [7AD307AA], AccurateRip returned [3844656E]
Track  9  cannot be verified as accurate (confidence 2)  [A1D925D0], AccurateRip returned [82593A8C]
Track 10  cannot be verified as accurate (confidence 2)  [268E947D], AccurateRip returned [20DEAFC7]
Track 11  cannot be verified as accurate (confidence 2)  [A73F6234], AccurateRip returned [B92C2B90]
Track 12  cannot be verified as accurate (confidence 2)  [C0AD2A7D], AccurateRip returned [5C2C0A01]
No tracks could be verified as accurate
You may have a different pressing from the one(s) in the database
End of status report

Cue

Код:
REM GENRE Trip-Hop
REM DATE 2002
REM DISCID C10E220D
REM COMMENT "ExactAudioCopy v0.99pb4"
PERFORMER "Violet Indiana"
TITLE "Casino"
FILE "Violet Indiana - Casino.flac" WAVE
  TRACK 01 AUDIO
    TITLE "Jailbird"
    PERFORMER "Violet Indiana"
    INDEX 01 00:00:00
  TRACK 02 AUDIO
    TITLE "Bang Bang"
    PERFORMER "Violet Indiana"
    INDEX 00 04:26:23
    INDEX 01 04:28:23
  TRACK 03 AUDIO
    TITLE "Purr La Perla"
    PERFORMER "Violet Indiana"
    INDEX 00 07:43:54
    INDEX 01 07:45:19
  TRACK 04 AUDIO
    TITLE "Silent"
    PERFORMER "Violet Indiana"
    INDEX 00 10:35:47
    INDEX 01 10:37:12
  TRACK 05 AUDIO
    TITLE "Storm"
    PERFORMER "Violet Indiana"
    INDEX 00 14:00:69
    INDEX 01 14:02:69
  TRACK 06 AUDIO
    TITLE "Sky"
    PERFORMER "Violet Indiana"
    INDEX 00 17:46:73
    INDEX 01 17:49:73
  TRACK 07 AUDIO
    TITLE "Safe World"
    PERFORMER "Violet Indiana"
    INDEX 00 21:02:04
    INDEX 01 21:04:04
  TRACK 08 AUDIO
    TITLE "Ne Me Quitte Pas"
    PERFORMER "Violet Indiana"
    INDEX 00 24:24:57
    INDEX 01 24:27:57
  TRACK 09 AUDIO
    TITLE "Poppy"
    PERFORMER "Violet Indiana"
    INDEX 00 28:12:04
    INDEX 01 28:14:04
  TRACK 10 AUDIO
    TITLE "Torn Up"
    PERFORMER "Violet Indiana"
    INDEX 00 31:21:57
    INDEX 01 31:23:22
  TRACK 11 AUDIO
    TITLE "Heaven"
    PERFORMER "Violet Indiana"
    INDEX 00 34:12:43
    INDEX 01 34:15:43
  TRACK 12 AUDIO
    TITLE "Chapter Three"
    PERFORMER "Violet Indiana"
    INDEX 00 36:49:08
    INDEX 01 36:51:08

+ DATA: Видеоклип на песню Killer Eyes


Тип файла: QuickTime Movie
Размер: 70,286 Mb (73 700 576 bytes)
Длительность: 4 мин 20 сек (0:04:20.899)
Разрешение: 320х240 (4:3)
ВидеоКодек: FourCC SVQ1 (ffdshow Video Decoder)
АудиоКодек: Unknown Wave Format (ffdshow Audio Decoder)

Скриншоты


О группе:


Violet Indiana – результат замечательного союза гитариста Robin Guthrie и вокалистки Siobhan De Maré с очень задумчивым и чувственным голосом. Robin получил должное внимание и уважение в равной степени и за свои песни, и за 18-летнюю работу в знаменитым шотландском трио Cocteau Twins. Он работал с такими артистами, как: The Wolfgang Press, Lush, Gun Club, Ian McCulluch (Echo & The Bunnymen), Harold Budd, Edwyn Collins, Frente, Guy Chadwick (House of Love).
Благодаря успешному сотрудничеству Siobhan с электронной группой Mono, ее голос стал широко узнаваем. Самый знаменитый альбом Mono - Formica Blues, был невероятно популярным во всем мире, очень успешно продавался в США, что является просто беспрецедентным случаем для дебюта андеграундного коллектива. Запись Mono саундтрека к фильму «Большие надежды» еще больше закрепила их статус востребованных артистов. А дуэт с Guthrie, стал естественным следующим шагом в музыкальной карьере Siobhan. Кстати, познакомились они совершенно случайно, а до этого ни тот, ни другая ничего о музыке друг друга не слышали. Фанаты обоих проектов не будут разочарованы западающими в память панорамами, которые исследуются Violet Indiana, а тем, кто только открыл для себя «индиану», понравятся сделанные с любовью песни и одинокие фактуры, предложенные ими. К тому же, Robin Guthrie применяет какую-то легкость и простоту во всех своих песнях и добивается тем самым потрясающего эффекта. Добавьте к этому сильные, эмоциональные мелодии и стихи de Maré, и вы наверняка соблазнитесь Violet Indiana.
Violet Indiana – это отчетливый гитарный звук и запоминающийся голос, это музыка, в которой есть что-то знакомое и в то же время абсолютно новое.

YouTube


_________________


Last edited by Koralina on 2011-10-17 22:07; edited 5 times in total
Other forum [Profile] [PM]
Display posts from previous:    
Reply to topic

The time now is: Today 13:47

All times are GMT + 3 Hours



You cannot post new topics in this forum
You cannot reply to topics in this forum
You cannot edit your posts in this forum
You cannot delete your posts in this forum
You cannot vote in polls in this forum
You cannot attach files in this forum
You cannot download files in this forum