Today is a free download without charge Download

Deep Purple - ...To The Rising Sun -In Tokyo (Nuclear Blast Records) [2015, BDRip, H.264/1080р]

Reply to topic
 
Author
Message

NarDok ®

Longevity: 7 years 11 months

Posts: 914

Торрент-статистика

Post 18-Sep-2015 17:49

[Quote]

Deep Purple - ...To The Rising Sun (In Tokyo) - Выпущено: США, Nuclear Blast Records
Жанр: Rock, Hard Rock
Год выпуска: 2015
Исполнитель: Deep Purple
Описание:
Deep Purple объявили о выпуске двух концертных фильмов, снятых на Wacken и в Японии. To The Rising Sun (в Wacken) был снят на девять HD камер и отмечается что в первый раз Deep Purple выпустит 3D-фильм.
Продолжительность: 01:51:58
Качество видео: BDRip (1080р)
Контейнер: MKV
Битрейт видео: ~9010 Kbps, (16:9), 1920x1080р, 29.970 fps, High Profile 4.1
Видеокодек: MPEG-4 AVC
Аудиокодек: DTS
Аудио: DTS 5.1, 768 kbps, 48 kHz
Семпл
..

Треклист:

Треклист:
01. Aprs Vous
02. Into The Fire
03. Hard Lovin‘ Man
04. Strange Kind Of Woman
05. Vincent Price
06. Contact Lost
07. Uncommon Man
08. The Well-Dressed Guitar
09. The Mule
10. Above And Beyond
11. Lazy
12. Hell To Pay
13. Don Airey’s Solo
14. Perfect Strangers
15. Space Truckin‘
16. Smoke On The Water
17. Green Onions / Hush
18. Black Night

MediaInfo

Формат : Matroska
Версия формата : Version 4 / Version 2
Размер файла : 7,65 Гбайт
Продолжительность : 1 ч. 51 м.
Общий поток : 9780 Кбит/сек
Дата кодирования : UTC 2015-09-16 06:20:14
Программа кодирования : mkvmerge v8.2.0 ('World of Adventure') 64bit
Библиотека кодирования : libebml v1.3.1 + libmatroska v1.4.2
Видео
Идентификатор : 1
Формат : AVC
Формат/Информация : Advanced Video Codec
Профиль формата : [url=mailto:High@L4.1]High@L4.1[/url]
Параметр CABAC формата : Да
Параметр ReFrames формата : 4 кадра
Идентификатор кодека : V_MPEG4/ISO/AVC
Продолжительность : 1 ч. 51 м.
Битрейт : 9010 Кбит/сек
Ширина : 1920 пикселей
Высота : 1080 пикселей
Соотношение сторон : 16:9
Режим частоты кадров : Постоянный
Частота кадров : 29,970 кадров/сек
Цветовое пространство : YUV
Субдискретизация насыщенности : 4:2:0
Битовая глубина : 8 бит
Тип развёртки : Прогрессивная
Бит/(Пиксели*Кадры) : 0.145
Размер потока : 6,90 Гбайт (90%)
Библиотека кодирования : x264 core 148 r2597 e86f3a1
Настройки программы : cabac=1 / ref=4 / deblock=1:-1:-1 / analyse=0x3:0x113 / me=umh / subme=8 / psy=1 / psy_rd=1.00:0.15 / mixed_ref=1 / me_range=16 / chroma_me=1 / trellis=1 / 8x8dct=1 / cqm=0 / deadzone=21,11 / fast_pskip=0 / chroma_qp_offset=-3 / threads=6 / lookahead_threads=1 / sliced_threads=0 / nr=0 / decimate=1 / interlaced=0 / bluray_compat=0 / constrained_intra=0 / bframes=3 / b_pyramid=2 / b_adapt=2 / b_bias=0 / direct=3 / weightb=1 / open_gop=0 / weightp=2 / keyint=250 / keyint_min=25 / scenecut=40 / intra_refresh=0 / rc_lookahead=50 / rc=2pass / mbtree=1 / bitrate=9010 / ratetol=1.0 / qcomp=0.60 / qpmin=0 / qpmax=69 / qpstep=4 / cplxblur=20.0 / qblur=0.5 / ip_ratio=1.40 / aq=1:1.00
Default : Да
Forced : Нет
Аудио
Идентификатор : 2
Формат : DTS
Формат/Информация : Digital Theater Systems
Режим : 16
Параметр Endianness формата : Big
Идентификатор кодека : A_DTS
Продолжительность : 1 ч. 51 м.
Вид битрейта : Постоянный
Битрейт : 768 Кбит/сек
Каналы : 6 каналов
Расположение каналов : Front: L C R, Side: L R, LFE
Частота : 48,0 КГц
Битовая глубина : 24 бит
Метод сжатия : С потерями
Размер потока : 615 Мбайт (8%)
Язык : English
Default : Да
Forced : Нет
Меню
00:00:00.000 : en:00:00:00.000
00:02:10.097 : en:00:02:10.097
00:06:58.685 : en:00:06:58.685
00:10:20.019 : en:00:10:20.019
00:17:07.827 : en:00:17:07.827
00:23:39.952 : en:00:23:39.952
00:28:32.110 : en:00:28:32.110
00:31:21.046 : en:00:31:21.046
00:38:25.870 : en:00:38:25.870
00:41:25.883 : en:00:41:25.883
00:47:47.965 : en:00:47:47.965
00:52:49.166 : en:00:52:49.166
01:01:34.224 : en:01:01:34.224
01:06:53.376 : en:01:06:53.376
01:12:48.898 : en:01:12:48.898
01:19:16.986 : en:01:19:16.986
01:24:08.977 : en:01:24:08.977
01:33:17.959 : en:01:33:17.959
01:41:21.142 : en:01:41:21.142
Скриншоты:
       

_________________

Other forum [Profile] [PM]
Display posts from previous:    
Reply to topic

The time now is: Today 14:12

All times are GMT + 3 Hours



You cannot post new topics in this forum
You cannot reply to topics in this forum
You cannot edit your posts in this forum
You cannot delete your posts in this forum
You cannot vote in polls in this forum
You cannot attach files in this forum
You cannot download files in this forum