Today is a free download without charge Download

Игорь Корж - Мне приснилась ты (2007) [FLAC|image+.cue]<Шансон>

Reply to topic
 
Author
Message

NarDok ®

Longevity: 7 years 11 months

Posts: 914

Торрент-статистика

Post 10-Sep-2015 20:28

[Quote]

Игорь Корж - Мне приснилась ты - Год: 2007
Издатель (лейбл): Artur Music
Номер по каталогу: CD 339
Жанр: Шансон
Продолжительность: 00:52:51
Кодек: FLAC
Битрейт: Lossless
Тип рипа: image+.cue
Треклист:
01. Случайная встреча [04:15]
02. Только ты одна [04:47]
03. Холодное лето (с Екатериной Бужинской) [03:44]
04. Никогда [03:56]
05. На пиратском корабле [04:05]
06. Так будем жить [04:50]
07. К чему тебе любовь? [04:19]
08. Все пройдет [04:20]
09. Черный принц [03:56]
10. Мне приснилась ты [04:26]
11. 10 лет ПФЛ [03:30]
12. Так случилось [03:17]
13. От Киева до Харькова и дальше до Москвы (с Е.Кемеровским) [03:20]

Отчёт ЕАС&#58;

Код:
Exact Audio Copy V1.0 beta 1 from 15. November 2010
Отчёт EAC об извлечении, выполненном 25. апреля 2013, 10:31
Игорь Корж / Мне приснилась ты...
Дисковод: ASUS    DRW-24B3ST   Adapter: 0  ID: 1
Режим чтения                 : Достоверность
Использование точного потока : Да
Отключение кэша аудио        : Да
Использование указателей C2  : Нет
Коррекция смещения при чтении                     : 6
Способность читать области Lead-in и Lead-out     : Нет
Заполнение пропущенных сэмплов тишиной            : Да
Удаление блоков с тишиной в начале и конце        : Нет
При вычислениях CRC использовались нулевые сэмплы : Да
Интерфейс                                         : Встроенный Win32-интерфейс для Win NT/2000
Выходной формат          : Пользовательский кодировщик
Выбранный битрейт        : 896 kBit/s
Качество                 : Высокий
Добавление ID3-тэга      : Нет
Утилита сжатия           : C:\Program Files\FLAC\flac.exe
Дополнительные параметры : -T "DATE=%y" -T "GENRE=%m" -8 -V %s
TOC извлечённого CD
     Трек |   Старт  | Длительность | Начальный сектор | Конечный сектор
    ---------------------------------------------------------------------
       1  |  0:00.00 |    4:15.50   |           0      |      19174
       2  |  4:15.50 |    4:47.52   |       19175      |      40751
       3  |  9:03.27 |    3:44.33   |       40752      |      57584
       4  | 12:47.60 |    3:56.42   |       57585      |      75326
       5  | 16:44.27 |    4:05.54   |       75327      |      93755
       6  | 20:50.06 |    4:50.46   |       93756      |     115551
       7  | 25:40.52 |    4:19.29   |      115552      |     135005
       8  | 30:00.06 |    4:20.27   |      135006      |     154532
       9  | 34:20.33 |    3:56.14   |      154533      |     172246
      10  | 38:16.47 |    4:26.39   |      172247      |     192235
      11  | 42:43.11 |    3:30.11   |      192236      |     207996
      12  | 46:13.22 |    3:17.00   |      207997      |     222771
      13  | 49:30.22 |    3:20.54   |      222772      |     237825
      14  | 55:23.01 |    5:29.15   |      249226      |     273915
Характеристики диапазона извлечения и сообщения об ошибках
Выбранный диапазон
     Имя файла \Игорь Корж - Мне приснилась ты....wav
     Пиковый уровень 100.0 %
0.8 X
     Качество диапазона 100.0 %
     CRC теста 93ABF2A4
     CRC копии 93ABF2A4
     Копирование... OK
Ошибок не произошло
AccurateRip: сводка
Трек  1  нет в базе данных
Трек  2  нет в базе данных
Трек  3  нет в базе данных
Трек  4  нет в базе данных
Трек  5  нет в базе данных
Трек  6  нет в базе данных
Трек  7  нет в базе данных
Трек  8  нет в базе данных
Трек  9  нет в базе данных
Трек 10  нет в базе данных
Трек 11  нет в базе данных
Трек 12  нет в базе данных
Трек 13  нет в базе данных
Ни одного трека нет в базе AccurateRip
Конец отчёта
====  B4B3FCCBA028A9AE92115CB4BDF38FD61FFB629E540CCA8AEC5F7C4DB6FEA428 ====

Отчёт auCDtect Task manager&#58;

Код:
-----------------------
DON'T MODIFY THIS FILE
-----------------------
PERFORMER: auCDtect Task Manager, ver. 1.6.0 RC1 build 1.6.0.1
Copyright (c) 2008-2010 y-soft. All rights reserved
http://y-soft.org
ANALYZER: auCDtect: CD records authenticity detector, version 0.8.2
Copyright (c) 2004 Oleg Berngardt. All rights reserved.
Copyright (c) 2004 Alexander Djourik. All rights reserved.
FILE: Игорь Корж - Мне приснилась ты....flac
  Size: 413900173 Hash: ECDC66FFBA5510231B351D009F1D15A7 Accuracy: -m0
  Conclusion: CDDA 100%
  Signature: EB05142C7CE412B3DA649828197AFCE26C6B6D21

Спектрограмма&#58;

 

_________________

Other forum [Profile] [PM]
Similar theme
Forum Topic Author Torrent Replies Last Post
./templates/default/images/folder_dl.gif Компьютерная литература Игорь Клоков - Эффективное делопроизводство на компьютере [2006] [PDF] Omen
0 | 1

0 | 1120

4

2013-02-11 17:57
Omen Latest
./templates/default/images/folder_dl.gif Компьютерная литература Игорь Квинт | Работаем на нетбуке. Начали! [2010] [FB2] sashau
0 | 1

0 | 957

4

2013-06-16 16:56
sashau Latest
./templates/default/images/folder_dl.gif Обучающее видео Владимир Козин и Игорь Екимов | Сам себе электрик. Блок профи (2013) [unpacked] Omen
1 | 0

0 | 3788

63

2014-04-21 20:51
Omen Latest
./templates/default/images/folder_dl.gif Справочники, энциклопедии и словари Ксения Аниашвили, Игорь Гусев, Василина Губина - Покажи мне как. 777 самоучителей в одной книге [2016, PDF] Anonymous
1 | 0

0 | 2478

35

2016-11-06 00:10
Anonymous Latest
./templates/default/images/folder_dl.gif Компьютерная литература Дмитрий Котеров, Игорь Симдянов | PHP 7. В подлиннике (2016) [PDF] moralis
1 | 0

0 | 1795

5

2017-09-29 15:16
moralis Latest
Display posts from previous:    
Reply to topic

The time now is: Today 05:22

All times are GMT + 3 Hours



You cannot post new topics in this forum
You cannot reply to topics in this forum
You cannot edit your posts in this forum
You cannot delete your posts in this forum
You cannot vote in polls in this forum
You cannot attach files in this forum
You cannot download files in this forum