Today is a free download without charge Download

Виталий Кочетков - Со мною любовь (2012) [FLAC|image+.cue]<Шансон>

Reply to topic
 
Author
Message

NarDok ®

Longevity: 7 years 10 months

Posts: 914

Торрент-статистика

Post 05-Sep-2015 16:45

[Quote]

Виталий Кочетков - Со мною любовь - Год: 2012
Страна-производитель диска: Россия
Издатель (лейбл): Студия "Ночное такси"
Жанр: Шансон
Продолжительность: 00:59:52
Кодек: FLAC
Битрейт: Lossless
Тип рипа: image+.cue
Треклист:
01. Вступление-А.Фрумин [00:14]
02. Колючие ветра [02:32]
03. Еду к тебе [02:17]
04. Я целую [02:39]
05. Это всё мы!! [03:32]
06. Уцякае сонецны прамень (убегает солнечный зайчик) Бел. [02:47]
07. Тук-тук-тук [04:05]
08. Просто весна [02:42]
09. Со мною любовь [02:55]
10. Вдохновение и вино [03:08]
11. Мои воспоминания [02:32]
12. Поцелуи в васильках [02:06]
13. Пустой дом [02:33]
14. Февраль [03:50]
15. Разам з сябрам (вместе с друзьями) Бел. [02:30]
16. Просто любовь [02:59]
17. Колыбельная пассажиру [04:29]
18. Калыханка каханай (Колыбель любимой) Бел. [02:19]
19. Колыбельная сынуле [03:40]
20. Милый март [03:13]
21. Туда [02:40]

Отчёт ЕАС&#58;

Код:
Exact Audio Copy V1.0 beta 3 from 29. August 2011
Отчёт EAC об извлечении, выполненном 18. апреля 2013, 19:09
Виталий Кочетков / Со мною любовь (акустический альбом)
Дисковод: ASUS    DRW-1814BLT   Adapter: 5  ID: 0
Режим чтения                 : Достоверность
Использование точного потока : Да
Отключение кэша аудио        : Да
Использование указателей C2  : Нет
Коррекция смещения при чтении                     : 6
Способность читать области Lead-in и Lead-out     : Нет
Заполнение пропущенных сэмплов тишиной            : Да
Удаление блоков с тишиной в начале и конце        : Нет
При вычислениях CRC использовались нулевые сэмплы : Да
Интерфейс                                         : Встроенный Win32-интерфейс для Win NT/2000
Выходной формат : Внутренние WAV-операции
Формат сэмплов  : 44.100 Гц; 16 бит; стерео
TOC извлечённого CD
     Трек |   Старт  | Длительность | Начальный сектор | Конечный сектор
    ---------------------------------------------------------------------
       1  |  0:00.00 |    0:14.32   |           0      |       1081
       2  |  0:14.32 |    2:32.54   |        1082      |      12535
       3  |  2:47.11 |    2:17.68   |       12536      |      22878
       4  |  5:05.04 |    2:39.41   |       22879      |      34844
       5  |  7:44.45 |    3:32.34   |       34845      |      50778
       6  | 11:17.04 |    2:47.20   |       50779      |      63323
       7  | 14:04.24 |    4:05.63   |       63324      |      81761
       8  | 18:10.12 |    2:42.25   |       81762      |      93936
       9  | 20:52.37 |    2:55.45   |       93937      |     107106
      10  | 23:48.07 |    3:08.06   |      107107      |     121212
      11  | 26:56.13 |    2:32.03   |      121213      |     132615
      12  | 29:28.16 |    2:06.28   |      132616      |     142093
      13  | 31:34.44 |    2:33.45   |      142094      |     153613
      14  | 34:08.14 |    3:50.63   |      153614      |     170926
      15  | 37:59.02 |    2:30.23   |      170927      |     182199
      16  | 40:29.25 |    2:59.47   |      182200      |     195671
      17  | 43:28.72 |    4:29.18   |      195672      |     215864
      18  | 47:58.15 |    2:19.22   |      215865      |     226311
      19  | 50:17.37 |    3:40.16   |      226312      |     242827
      20  | 53:57.53 |    3:13.67   |      242828      |     257369
      21  | 57:11.45 |    2:40.73   |      257370      |     269442
Характеристики диапазона извлечения и сообщения об ошибках
Выбранный диапазон
     Имя файла \Виталий Кочетков - Со мною любовь.wav
     Пиковый уровень 100.0 %
     Скорость извлечения 9.3 X
     Качество диапазона 99.9 %
     CRC теста B71AE513
     CRC копии B71AE513
     Копирование... OK
Ошибок не произошло
AccurateRip: сводка
Трек  1  отсутствует в базе данных
Трек  2  отсутствует в базе данных
Трек  3  отсутствует в базе данных
Трек  4  отсутствует в базе данных
Трек  5  отсутствует в базе данных
Трек  6  отсутствует в базе данных
Трек  7  отсутствует в базе данных
Трек  8  отсутствует в базе данных
Трек  9  отсутствует в базе данных
Трек 10  отсутствует в базе данных
Трек 11  отсутствует в базе данных
Трек 12  отсутствует в базе данных
Трек 13  отсутствует в базе данных
Трек 14  отсутствует в базе данных
Трек 15  отсутствует в базе данных
Трек 16  отсутствует в базе данных
Трек 17  отсутствует в базе данных
Трек 18  отсутствует в базе данных
Трек 19  отсутствует в базе данных
Трек 20  отсутствует в базе данных
Трек 21  отсутствует в базе данных
Ни одного трека нет в базе AccurateRip
Конец отчёта
==== Контрольная сумма отчёта 930FAD4484BF01E49C72ECA4448F86228F231561ADA140D5479D589D83D6A5C2 ====

Отчёт auCDtect Task manager&#58;

Код:
-----------------------
DON'T MODIFY THIS FILE
-----------------------
PERFORMER: auCDtect Task Manager, ver. 1.6.0 RC1 build 1.6.0.1
Copyright (c) 2008-2010 y-soft. All rights reserved
http://y-soft.org
ANALYZER: auCDtect: CD records authenticity detector, version 0.8.2
Copyright (c) 2004 Oleg Berngardt. All rights reserved.
Copyright (c) 2004 Alexander Djourik. All rights reserved.
FILE: Виталий Кочетков - Со мною любовь .flac
  Size: 403914390 Hash: 2B4CEACB5FB9901569654171445C31DE Accuracy: -m0
  Conclusion: CDDA 100%
  Signature: 19A76504D2A7144F1BACBE75BA6A4CD7029ADDA8

Спектрограмма&#58;

 

_________________

Other forum [Profile] [PM]
Similar theme
Forum Topic Author Torrent Replies Last Post
./templates/default/images/folder_dl.gif Компьютерная литература Виталий Леонтьев | Все о работе на ноутбуке в одной книге (2018) [PDF] }{@R0N
1 | 0

0 | 528

0

2019-03-13 18:30
}{@R0N Latest
Display posts from previous:    
Reply to topic

The time now is: Today 13:43

All times are GMT + 3 Hours



You cannot post new topics in this forum
You cannot reply to topics in this forum
You cannot edit your posts in this forum
You cannot delete your posts in this forum
You cannot vote in polls in this forum
You cannot attach files in this forum
You cannot download files in this forum