Today is a free download without charge Download

Афина - Небо в октябре (2006) [FLAC|image+.cue]<Шансон>

Reply to topic
 
Author
Message

NarDok ®

Longevity: 7 years 11 months

Posts: 914

Торрент-статистика

Post 05-Sep-2015 16:42

[Quote]

Афина - Небо в октябре - Год: 2006
Страна-производитель диска: Украина
Издатель (лейбл): Artur Music
Номер по каталогу: CD 306
Жанр: Шансон
Продолжительность: 00:56:24
Кодек: FLAC
Битрейт: Lossless
Тип рипа: image+.cue
Треклист:
01. Париж [04:29]
02. Небо в октябре [04:54]
03. Стрекоза [03:15]
04. Мамбо [03:46]
05. Ты мой [03:53]
06. Бедовая [03:29]
07. Без любви [03:50]
08. Я ждала [04:19]
09. Рулетка [03:40]
10. Кольцо [03:59]
11. Шатёр [04:55]
12. Подруги [03:30]
13. Полуночный Марсель [04:07]
14. Друзья [04:11]

Отчёт ЕАС&#58;

Код:
Exact Audio Copy V1.0 beta 1 from 15. November 2010
Отчёт EAC об извлечении, выполненном 7. ноября 2011, 20:03
Афина / Небо в октябре
Дисковод: _NEC    DV-5800E   Adapter: 0  ID: 1
Режим чтения                 : Достоверность
Использование точного потока : Да
Отключение кэша аудио        : Да
Использование указателей C2  : Нет
Коррекция смещения при чтении                     : 6
Способность читать области Lead-in и Lead-out     : Нет
Заполнение пропущенных сэмплов тишиной            : Да
Удаление блоков с тишиной в начале и конце        : Нет
При вычислениях CRC использовались нулевые сэмплы : Да
Интерфейс                                         : Установленный внешний ASPI-интерфейс
Выходной формат : Внутренние WAV-операции
Формат сэмплов  : 44.100 Гц; 16 бит; стерео
TOC извлечённого CD
     Трек |   Старт  | Длительность | Начальный сектор | Конечный сектор
    ---------------------------------------------------------------------
       1  |  0:00.00 |    4:29.57   |           0      |      20231
       2  |  4:29.57 |    4:54.33   |       20232      |      42314
       3  |  9:24.15 |    3:15.45   |       42315      |      56984
       4  | 12:39.60 |    3:46.29   |       56985      |      73963
       5  | 16:26.14 |    3:53.60   |       73964      |      91498
       6  | 20:19.74 |    3:29.07   |       91499      |     107180
       7  | 23:49.06 |    3:50.43   |      107181      |     124473
       8  | 27:39.49 |    4:19.58   |      124474      |     143956
       9  | 31:59.32 |    3:40.38   |      143957      |     160494
      10  | 35:39.70 |    3:59.14   |      160495      |     178433
      11  | 39:39.09 |    4:55.10   |      178434      |     200568
      12  | 44:34.19 |    3:30.16   |      200569      |     216334
      13  | 48:04.35 |    4:07.58   |      216335      |     234917
      14  | 52:12.18 |    4:11.66   |      234918      |     253808
Характеристики диапазона извлечения и сообщения об ошибках
Выбранный диапазон
     Имя файла \Афина - Небо в октябре (2006г.)\Афина - Небо в октябре.wav
     Пиковый уровень 100.0 %
0.7 X
     Качество диапазона 100.0 %
     CRC теста 12BD65FA
     CRC копии 12BD65FA
     Копирование... OK
Ошибок не произошло
AccurateRip: сводка
Трек  1  нет в базе данных
Трек  2  нет в базе данных
Трек  3  нет в базе данных
Трек  4  нет в базе данных
Трек  5  нет в базе данных
Трек  6  нет в базе данных
Трек  7  нет в базе данных
Трек  8  нет в базе данных
Трек  9  нет в базе данных
Трек 10  нет в базе данных
Трек 11  нет в базе данных
Трек 12  нет в базе данных
Трек 13  нет в базе данных
Трек 14  нет в базе данных
Ни одного трека нет в базе AccurateRip
Конец отчёта

Отчёт auCDtect Task manager&#58;

Код:
-----------------------
DON'T MODIFY THIS FILE
-----------------------
PERFORMER: auCDtect Task Manager, ver. 1.6.0 RC1 build 1.6.0.1
Copyright (c) 2008-2010 y-soft. All rights reserved
http://y-soft.org
ANALYZER: auCDtect: CD records authenticity detector, version 0.8.2
Copyright (c) 2004 Oleg Berngardt. All rights reserved.
Copyright (c) 2004 Alexander Djourik. All rights reserved.
FILE: Афина - Небо в октябре.flac
  Size: 442389225 Hash: CB67699A4D2217BB789D424B8AE182B1 Accuracy: -m0
  Conclusion: CDDA 100%
  Signature: AA866AED22A1490A1A6123D81036845EE7665782

Спектрограмма&#58;

 

_________________

Other forum [Profile] [PM]
Display posts from previous:    
Reply to topic

The time now is: Today 03:11

All times are GMT + 3 Hours



You cannot post new topics in this forum
You cannot reply to topics in this forum
You cannot edit your posts in this forum
You cannot delete your posts in this forum
You cannot vote in polls in this forum
You cannot attach files in this forum
You cannot download files in this forum