Today is a free download without charge Download

Александр Вестов - Хорошие новости (2011) [FLAC|image+.cue]<Шансон>

Reply to topic
 
Author
Message

NarDok ®

Longevity: 7 years 11 months

Posts: 914

Торрент-статистика

Post 24-Aug-2015 23:04

[Quote]

Александр Вестов - Хорошие новости - Год: 2011
Производство: Россия / "Master Sound"
Жанр: Шансон
Продолжительность: 00:49:31
Кодек: FLAC
Битрейт: Lossless
Тип рипа: image+.cue
Треклист:
01. Хорошие новости
02. Наташа, двигайся!
03. Ветра
04. Выше нос
05. Кабаки
06. Приезжайте на юг
07. Черные бриллианты
08. Заскучает судья
09. Там, где ты (feat. Dalli)
10. Выходной
11. Тема подброшена
12. Не возьму я в толк (mix)

Отчёт ЕАС&#58;

Код:
Exact Audio Copy V0.99 prebeta 4 from 23. January 2008
EAC extraction logfile from 15. October 2011, 18:54
А.ВЕСТОВ / ХОРОШИЕ НОВОСТИ
Used drive  : ASUS    DRW-2014L1   Adapter: 0  ID: 0
Read mode               : Secure
Utilize accurate stream : Yes
Defeat audio cache      : Yes
Make use of C2 pointers : No
Read offset correction                      : 6
Overread into Lead-In and Lead-Out          : No
Fill up missing offset samples with silence : Yes
Delete leading and trailing silent blocks   : No
Null samples used in CRC calculations       : Yes
Used interface                              : Installed external ASPI interface
Used output format              : User Defined Encoder
Selected bitrate                : 128 kBit/s
Quality                         : High
Add ID3 tag                     : No
Command line compressor         : C:\Program Files\Exact Audio Copy\Flac\flac.exe
Additional command line options : -T "DATE=%y" -T "GENRE=%m" -8 -V %s
TOC of the extracted CD
     Track |   Start  |  Length  | Start sector | End sector
    ---------------------------------------------------------
        1  |  0:00.00 |  3:55.10 |         0    |    17634
        2  |  3:55.10 |  2:55.62 |     17635    |    30821
        3  |  6:50.72 |  3:23.51 |     30822    |    46097
        4  | 10:14.48 |  3:56.49 |     46098    |    63846
        5  | 14:11.22 |  3:47.68 |     63847    |    80939
        6  | 17:59.15 |  3:32.34 |     80940    |    96873
        7  | 21:31.49 |  2:48.55 |     96874    |   109528
        8  | 24:20.29 |  4:51.71 |    109529    |   131424
        9  | 29:12.25 |  3:35.52 |    131425    |   147601
       10  | 32:48.02 |  3:33.56 |    147602    |   163632
       11  | 36:21.58 |  4:02.23 |    163633    |   181805
       12  | 40:24.06 |  6:26.32 |    181806    |   210787
Range status and errors
Selected range
     Filename \А.ВЕСТОВ - ХОРОШИЕ НОВОСТИ\А.ВЕСТОВ - ХОРОШИЕ НОВОСТИ.wav
     Peak level 97.0 %
     Range quality 100.0 %
     Test CRC 2FD260F5
     Copy CRC 2FD260F5
     Copy OK
No errors occurred
AccurateRip summary
Track  1  not present in database
Track  2  not present in database
Track  3  not present in database
Track  4  not present in database
Track  5  not present in database
Track  6  not present in database
Track  7  not present in database
Track  8  not present in database
Track  9  not present in database
Track 10  not present in database
Track 11  not present in database
Track 12  not present in database
None of the tracks are present in the AccurateRip database
End of status report

Отчёт auCDtect Task manager&#58;

Код:
-----------------------
DON'T MODIFY THIS FILE
-----------------------
PERFORMER: auCDtect Task Manager, ver. 1.6.0 RC1 build 1.6.0.1
Copyright (c) 2008-2010 y-soft. All rights reserved
http://y-soft.org
ANALYZER: auCDtect: CD records authenticity detector, version 0.8.2
Copyright (c) 2004 Oleg Berngardt. All rights reserved.
Copyright (c) 2004 Alexander Djourik. All rights reserved.
FILE: А.ВЕСТОВ - ХОРОШИЕ НОВОСТИ.flac
  Size: 377489350 Hash: 7170BAF7ED2BBD280D3BCAC7CFF22A48 Accuracy: -m0
  Conclusion: CDDA 100%
  Signature: EC6DF1ACF462DE182072FD86D8CA2DCFD05389AA

Спектрограмма&#58;

 

_________________

Other forum [Profile] [PM]
Similar theme
Forum Topic Author Torrent Replies Last Post
./templates/default/images/folder_dl.gif Компьютерная литература Александр Ватаманюк | Создание и обслуживание сетей в Windows 7 [2010] [PDF] sashau
1 | 0

0 | 948

14

2013-01-10 16:57
sashau Latest
./templates/default/images/folder_dl.gif Современная проза, классика, поэзия Крыласов Александр - Лекарство от пробок [Александр Крыласов, 2014 г., 320 kbps, MP3] Omen
1 | 0

0 | 929

1

2014-06-15 08:01
Omen Latest
./templates/default/images/folder_dl.gif Справочники, энциклопедии и словари Александр Драгункин | 30 учебников (2002-2010) [PDF, DJVU] Omen
1 | 0

0 | 1297

20

2014-07-19 09:58
Omen Latest
./templates/default/images/folder_dl.gif Компьютерная литература Алексей Чекмарев | Windows 7 в домашней сети (2011) [PDF] O.S.A.
0 | 1

0 | 1080

24

2014-08-04 18:09
O.S.A. Latest
./templates/default/images/folder_dl.gif Компьютерная литература Алексей Чекмарев | Microsoft Windows 7 для пользователей (2010) [PDF] Omen
1 | 0

0 | 967

4

2014-08-07 21:35
Omen Latest
./templates/default/images/folder_dl.gif Техническая и научно-популярная литература Александр Емельяненков | Буксир, толкач и мини АЭС (2013) [PDF] Omen
1 | 0

0 | 290

1

2015-09-27 21:47
Omen Latest
./templates/default/images/folder_dl.gif Обучающее видео Меркулов Алексей | Использование AutoCAD на 100% 2.0 (2015) PCRec [H.264/720p] Omen
1 | 0

1 | 3008

103

2017-11-25 21:03
aybulat Latest
./templates/default/images/folder_dl.gif Обучающее видео Алекс Мэй | Формула струйных оргазмов 2.0 (2015) HDRip [H.264/1080p] Omen
1 | 0

0 | 2507

88

2016-03-24 00:01
Omen Latest
./templates/default/images/folder_dl.gif Разное Александр Матанцев | Поздравления от души (2018) [PDF] }{@R0N
1 | 0

0 | 759

6

2018-10-21 17:47
}{@R0N Latest
./templates/default/images/folder_dl.gif Психология, Тренинг, Саморазвитие Александр Свияш | Как разумные люди создают безумный мир. Негативные эмоции. Поймать и обезвредить (2018) [PDF] }{@R0N
1 | 0

0 | 1106

1

2019-03-17 22:54
}{@R0N Latest
Display posts from previous:    
Reply to topic

The time now is: Today 03:51

All times are GMT + 3 Hours



You cannot post new topics in this forum
You cannot reply to topics in this forum
You cannot edit your posts in this forum
You cannot delete your posts in this forum
You cannot vote in polls in this forum
You cannot attach files in this forum
You cannot download files in this forum