Today is a free download without charge Download

PQ-17: Катастрофа арктического конвоя / PQ17: An Arctic Convoy Disaster (Ричард Пирсон) [2014, HDTVRip, H.264/720p-LQ]

Reply to topic
 
Author
Message

NarDok ®

Longevity: 8 years 1 month

Posts: 914

Торрент-статистика

Post 09-Aug-2015 21:41

[Quote]

PQ-17: Катастрофа арктического конвоя / PQ17: An Arctic Convoy Disaster - Телекомпания: Великобритания, BBC
Жанр: Документальный, война, история
Режиссер: Ричард Пирсон
Участники: Джереми Кларксон, Джим Кейрнс, Рон Бетли
Описание:
Английский телеведущий и журналист Джереми Кларксон рассказывает об арктических конвоях времён Второй Мировой. Их миссия - доставить жизненно важные продукты и боеприпасы в сражающийся Советский Союз сквозь шторм и снующие повсюду подводные лодки. Посредством рассказов очевидцев, архивных видеоматериалов и даже личного опыта, Джереми раскроет историю смелости в невероятно тяжёлые моменты.

Продолжительность: 00:58:56
Качество видео: HDTVRip
Перевод: Многоголосый закадровый, профессиональный
Озвучено на студии AlexFilm
Видео: AVC/H.264, 1280x720, ~3197 kbps
Аудио: AC3, 2 ch, 192 kbps, CBR

Mediainfo:

Код:
PQ-17.Катастрофа.арктического.конвоя.2014.720p.hdtv.x264.alf62.mkv
Формат                                   : Matroska
Версия формата                           : Version 4 / Version 2
Размер файла                             : 1,42 Гбайт
Продолжительность                        : 58 м.
Общий поток                              : 3458 Кбит/сек
Дата кодирования                         : UTC 2015-08-08 19:33:10
Программа кодирования                    : mkvmerge v6.0.0 ('Coming Up For Air') built on Jan 20 2013 09:52:00
Библиотека кодирования                   : libebml v1.3.0 + libmatroska v1.4.0
Видео
Идентификатор                            : 1
Формат                                   : AVC
Формат/Информация                        : Advanced Video Codec
Профиль формата                          : [url=mailto:High@L4.1]High@L4.1[/url]
Параметр CABAC формата                   : Да
Параметр ReFrames формата                : 6 кадров
Идентификатор кодека                     : V_MPEG4/ISO/AVC
Продолжительность                        : 58 м.
Битрейт                                  : 3197 Кбит/сек
Ширина                                   : 1280 пикселей
Высота                                   : 720 пикселей
Соотношение сторон                       : 16:9
Режим частоты кадров                     : Постоянный
Частота кадров                           : 25,000 кадров/сек
Цветовое пространство                    : YUV
Субдискретизация насыщенности            : 4:2:0
Битовая глубина                          : 8 бит
Тип развёртки                            : Прогрессивная
Бит/(Пиксели*Кадры)                      : 0.139
Размер потока                            : 1,32 Гбайт (92%)
Библиотека кодирования                   : x264 core 140 r2377 1ca7bb9
Настройки программы                      : cabac=1 / ref=6 / deblock=1:0:0 / analyse=0x3:0x113 / me=umh / subme=9 / psy=1 / psy_rd=1.00:0.00 / mixed_ref=1 / me_range=24 / chroma_me=1 / trellis=1 / 8x8dct=1 / cqm=0 / deadzone=21,11 / fast_pskip=0 / chroma_qp_offset=-2 / threads=3 / lookahead_threads=1 / sliced_threads=0 / nr=0 / decimate=1 / interlaced=0 / bluray_compat=0 / constrained_intra=0 / bframes=3 / b_pyramid=2 / b_adapt=1 / b_bias=0 / direct=1 / weightb=1 / open_gop=0 / weightp=2 / keyint=250 / keyint_min=15 / scenecut=40 / intra_refresh=0 / rc_lookahead=40 / rc=crf / mbtree=1 / crf=19.0 / qcomp=0.60 / qpmin=0 / qpmax=69 / qpstep=4 / ip_ratio=1.40 / aq=1:1.00
Язык                                     : English
Default                                  : Да
Forced                                   : Нет
Аудио
Идентификатор                            : 2
Формат                                   : AC-3
Формат/Информация                        : Audio Coding 3
Расширение режима                        : CM (complete main)
Параметр Endianness формата              : Big
Идентификатор кодека                     : A_AC3
Продолжительность                        : 58 м.
Вид битрейта                             : Постоянный
Битрейт                                  : 192 Кбит/сек
Каналы                                   : 2 канала
Расположение каналов                     : Front: L R
Частота                                  : 48,0 КГц
Битовая глубина                          : 16 бит
Метод сжатия                             : С потерями
Размер потока                            : 81,0 Мбайт (6%)
Default                                  : Да
Forced                                   : Нет
Скриншоты:
       

Дополнительные скриншоты:

       
       
     

_________________

Other forum [Profile] [PM]
Display posts from previous:    
Reply to topic

The time now is: Today 09:07

All times are GMT + 3 Hours



You cannot post new topics in this forum
You cannot reply to topics in this forum
You cannot edit your posts in this forum
You cannot delete your posts in this forum
You cannot vote in polls in this forum
You cannot attach files in this forum
You cannot download files in this forum