Today is a free download without charge Download

3Д раритеты в 3Д / 3-D Rarities in 3D [2015, Документальный, BDrip-AVC] Eng, Half OverUnder / Вертикальная анаморфная стереопара

Reply to topic
 
Author
Message

Omen ®

Longevity: 7 years 1 month

Posts: 181090

Торрент-статистика

Post 08-Aug-2015 21:00

[Quote]

3Д раритеты
3-D Rarities
В ознаменование 100-летия публичного кинопоказа 3Д Год выпуска: 2015
Страна: США (Flicker Alley, Greenbriar Picture Shows, 3-D Film Archive)
Жанр: Документальный
Продолжительность: 02:25:22
Перевод: Отсутствует (надписи, в основном, переведены русскими субтитрами)-Описание: Фильм, состоящий из раритетных 3Д роликов. Показана история развития 3Д кинематографа.-Доп. инфо.: Отдельными файлами идут пять роликов с диска. Четыре из них - слайд-шоу без звука. Полное содержание - внизу под спойлером.- . -Качество: BDRip (by Ash61)
Контейнер: MKV
Формат 3D: Half OverUnder / Вертикальная анаморфная стереопара
Порядок ракурсов: левый ракурс первый-Видео: AVC / 23,976 fps / 1920х1080p / 14.3 Mbps
Аудио: Английский / AC3 / 48 KHz / 5.1 ch / 640 Kbps (Original - BD 3D)
Субтитры (SRT):
Вшитые (softsub):
#1 - Русские Форсированные (включены по умолчанию)
Внешние (UTF-8):
#1 - Русские Форсированные (включены по умолчанию)

MediaInfo

General
Unique ID : 173270739354341691477371321320959293698 (0x825ABB04B9E05BFC829746EFFD82B902)
Complete name : E:\3dRarities(2015)3D-halfOU(Ash61)Eng\3dRarities(2015)3D-halfOU(Ash61)Eng.mkv
Format : Matroska
Format version : Version 2
File size : 15.5 GiB
Duration : 2h 25mn
Overall bit rate : 15.2 Mbps
Movie name : 3Д раритеты / 3-D Rarities (2015) в 3Д
Encoded date : UTC 2015-07-22 09:50:58
Writing application : mkvmerge v5.8.0 ('No Sleep / Pillow') built on Sep 2 2012 15:37:04
Writing library : libebml v1.2.3 + libmatroska v1.3.0
Video
ID : 1
Format : AVC
Format/Info : Advanced Video Codec
Format profile : High@L4.1
Format settings, CABAC : Yes
Format settings, ReFrames : 4 frames
Codec ID : V_MPEG4/ISO/AVC
Duration : 2h 25mn
Bit rate : 14.3 Mbps
Width : 1 920 pixels
Height : 1 080 pixels
Display aspect ratio : 16:9
Frame rate mode : Constant
Frame rate : 23.976 fps
Color space : YUV
Chroma subsampling : 4:2:0
Bit depth : 8 bits
Scan type : Progressive
Bits/(Pixel*Frame) : 0.287
Stream size : 14.5 GiB (94%)
Title : BDRip by Ash61
Writing library : x264 core 138 r2358 9e941d1
Encoding settings : cabac=1 / ref=4 / deblock=1:-3:-3 / analyse=0x3:0x113 / me=umh / subme=10 / psy=1 / psy_rd=1.00:0.00 / mixed_ref=1 / me_range=32 / chroma_me=1 / trellis=2 / 8x8dct=1 / cqm=0 / deadzone=21,11 / fast_pskip=1 / chroma_qp_offset=-2 / threads=12 / lookahead_threads=3 / sliced_threads=0 / nr=0 / decimate=1 / interlaced=0 / bluray_compat=0 / constrained_intra=0 / bframes=12 / b_pyramid=2 / b_adapt=2 / b_bias=0 / direct=3 / weightb=1 / open_gop=0 / weightp=2 / keyint=250 / keyint_min=23 / scenecut=40 / intra_refresh=0 / rc_lookahead=60 / rc=crf / mbtree=1 / crf=17.0 / qcomp=0.70 / qpmin=10 / qpmax=51 / qpstep=4 / vbv_maxrate=40000 / vbv_bufsize=30000 / crf_max=0.0 / nal_hrd=none / frame-packing=4 / ip_ratio=1.40 / aq=1:0.70
Language : English
Default : Yes
Forced : No
Audio
ID : 2
Format : AC-3
Format/Info : Audio Coding 3
Mode extension : CM (complete main)
Format settings, Endianness : Big
Codec ID : A_AC3
Duration : 2h 25mn
Bit rate mode : Constant
Bit rate : 640 Kbps
Channel(s) : 6 channels
Channel positions : Front: L C R, Side: L R, LFE
Sampling rate : 48.0 KHz
Bit depth : 16 bits
Compression mode : Lossy
Stream size : 665 MiB (4%)
Title : Original - BD 3D
Language : English
Default : Yes
Forced : No
Text
ID : 3
Format : UTF-8
Codec ID : S_TEXT/UTF8
Codec ID/Info : UTF-8 Plain Text
Title : Форсированные (на основные надписи)
Language : Russian
Default : Yes
Forced : No
Menu
00:00:00.000 : :1. Introducing. Part 1 - The Dawn of Stereoscopic Cinematography
00:00:50.759 : :2. (1922/1923) Kelley's Plasticon Pictures
00:08:35.849 : :3. (1924/1927) William T. Crespinel / Jacob Leventhal tests
00:14:19.525 : :4. (1935) John Norling / Jacob Leventhal (tests)
00:17:44.522 : :5. (May, 1940) Thrills for You
00:26:10.277 : :6. (May, 1940) New Dimensions (9:08)
00:35:18.158 : :7. (May, 1951) Now is the Time (3:13)
00:38:32.268 : :8. Around is Around
00:45:59.632 : :9. (May, 1952) O Canada
00:47:31.891 : :10. Twirligig
00:51:08.357 : :11. (June, 1952) Bolex Stereo
01:01:38.361 : :12. Part 2 - Hollywood Enters the Third Dimension
01:01:47.913 : :13. (November, 1952) M. L. Gunzburg Presents Natural Vision 3-Dimension (5:23)
01:07:17.116 : :14. It Came from Outer Space (trailer)
01:10:56.252 : :15. Rocky Marciano vs. Jersey Joe Walcott
01:27:32.289 : :16. Hannah Lee (trailer)
01:29:37.247 : :17. Stardust in Your Eyes
01:35:48.576 : :18. The Maze (trailer)
01:38:02.543 : :19. Doom Town
01:53:30.929 : :20. The Adventures of Sam Space
02:02:42.814 : :21. I'll Sell My Shirt
02:12:36.407 : :22. Miss Sadie Thompson (trailer)
02:15:36.045 : :23. Casper the Friendly Ghost: Boo Moon (1953)
02:23:09.706 : :24. Credits

Для оценки 3Д - Анимированные скрины




















Содержание

Kelley's Plasticon Pictures (7:41) (1922 / 1923)
William T. Crespinel / Jacob Leventhal tests (5:44) (1924 / 1927)
John Norling / Jacob Leventhal tests (3:25) (1935)
Thrills for You (8:26) (May, 1940)
New Dimensions (9:08) (May, 1940)
Now is the Time (3:13) (May, 1951)
Around is Around (7:28)
O Canada (1:32) (May, 1952)
Twirligig (3:35)
Bolex Stereo (10:32) (June, 1952)
M. L. Gunzburg Presents Natural Vision 3-Dimension (5:23) (November, 1952)
It Came from Outer Space trailer (3:39)
Rocky Marciano vs. Jersey Joe Walcott (16:36)
Hannah Lee trailer (2:07)
Stardust in Your Eyes (6:10)
The Maze trailer (2:16)
Doom Town (15:25)
The Adventures of Sam Space (9:13)
I'll Sell My Shirt (9:54)
Miss Sadie Thompson trailer (3:00)
Boo Moon (Casper the Friendly Ghost (1953)) (7:33)-Бонусы:
3-D footage directed by Francis Ford Coppola from The Bellboy and the Playgirls (2:04)
3-D Photo Galleries:
Hunchback of Notre Dame (1923) (2:00)
New York World's Fair (1939) (2:20)
Sam Sawyer View-Master reels (1950) (2:30)
3-D Comic Books (1953) (3:10)
Other forum [Profile] [PM]
Display posts from previous:    
Reply to topic

The time now is: Today 00:50

All times are GMT + 3 Hours



You cannot post new topics in this forum
You cannot reply to topics in this forum
You cannot edit your posts in this forum
You cannot delete your posts in this forum
You cannot vote in polls in this forum
You cannot attach files in this forum
You cannot download files in this forum