Today is a free download without charge Download

Охота на индюшек / Turkey Shoot (Джон Хьюит / Jon Hewitt) [2014 г., боевик, BDRip] VO [Хихикающий доктор]

Reply to topic
 
Author
Message

Clavik ®

Gender:

Longevity: 6 years 2 months

Posts: 2353

Location: Украина

Торрент-статистика

Post 29-Jul-2015 15:13

[Quote]

--Охота на индюшек / Turkey Shoot-- Производство: Австралия, FG Film Productions, Thatcher Productions
Год выпуска: 2014 г.
Жанр: боевик
Продолжительность: 01:30:01--Мировая премьера: 4 декабря 2014--Перевод: Любительский (одноголосый, закадровый) [Хихикающий доктор]--Режиссер: Джон Хьюит / Jon Hewitt--В ролях: Доминик Пёрселл, Вива Бьянка, Роберт Тейлор, Белинда МакКлори, Николас Хэммонд, Кармен Дункан, Роджер Уорд, Сюзанна МакДональд, Стефен Филлипс--Описание: В результате шокирующих убийств гражданских в зоне боевых действий, Рика Тайлера приговаривают к заключению и отправляют гнить в тюрьму для военных. Там ему предлагают принять участие в игре, в роли дичи. Ставка в игре, его жизнь или свобода.-- --Качество видео: BDRip
Контейнер: AVI
Видео кодек: XviD
Аудио кодек: AC3
Видео: 720x400 (1.80:1), 23.976 fps, XviD build 73 ~1725 kbps avg, 0.25 bit/pixel
Аудио: 48 kHz, AC3 Dolby Digital, 3/2 (L,C,R,l,r) + LFE ch, ~448 kbps - xixidok
Cубтитры: Отсутствуют

MediaInfo

Общее
Полное имя : E:\T2\Turkey.Shoot.2014.xixidok.BDRip.1400.avi
Формат : AVI
Формат/Информация : Audio Video Interleave
Размер файла : 1,37 Гбайт
Продолжительность : 1 ч. 30 м.
Общий поток : 2183 Кбит/сек
Программа кодирования : VirtualDubMod 1.5.10.2 (build 2540/release)
Библиотека кодирования : VirtualDubMod build 2540/release
Видео
Идентификатор : 0
Формат : MPEG-4 Visual
Профиль формата : Advanced Simple@L5
Параметр BVOP формата : 1
Параметр QPel формата : Нет
Параметр GMC формата : Без точки перехода
Параметр матрицы формата : Выборочная
Идентификатор кодека : XVID
Идентификатор кодека/Подсказка : XviD
Продолжительность : 1 ч. 30 м.
Битрейт : 1726 Кбит/сек
Ширина : 720 пикселей
Высота : 400 пикселей
Соотношение сторон : 16:9
Частота кадров : 23,976 кадра/сек
Цветовое пространство : YUV
Субдискретизация насыщенности : 4:2:0
Битовая глубина : 8 бит
Тип развёртки : Прогрессивная
Метод сжатия : С потерями
Бит/(Пиксели*Кадры) : 0.250
Размер потока : 1,09 Гбайт (79%)
Библиотека кодирования : XviD 73
Аудио
Идентификатор : 1
Формат : AC-3
Формат/Информация : Audio Coding 3
Расширение режима : CM (complete main)
Параметр Endianness формата : Big
Идентификатор кодека : 2000
Продолжительность : 1 ч. 30 м.
Вид битрейта : Постоянный
Битрейт : 448 Кбит/сек
Каналы : 6 каналов
Расположение каналов : Front: L C R, Side: L R, LFE
Частота : 48,0 КГц
Битовая глубина : 16 бит
Метод сжатия : С потерями
Размер потока : 288 Мбайт (21%)
Выравнивание : Разделение по промежуткам
Продолжительность промежутка : 42 мс. (1,00 видеокадр)
Время предзагрузки промежутка : 500 мс.
Заголовок : xixidok

Скриншоты

           Трейлер

_________________


In forum [Profile] [PM]
Similar theme
Forum Topic Author Torrent Replies Last Post
./templates/default/images/folder_dl.gif Зарубежное кино Крикуны 2: Охота / Screamers 2: The Hunting (2009) BDRip [H.264/1080p] RazBoyNik
1 | 0

0 | 1879

10

2017-02-05 19:09
RazBoyNik Latest
Display posts from previous:    
Reply to topic

The time now is: Today 21:19

All times are GMT + 3 Hours



You cannot post new topics in this forum
You cannot reply to topics in this forum
You cannot edit your posts in this forum
You cannot delete your posts in this forum
You cannot vote in polls in this forum
You cannot attach files in this forum
You cannot download files in this forum