Today is a free download without charge Download

Оркестр Поля Мориа - Под музыку Вивальди (1982) [FLAC 2.0 16/44,1|traks(Vinyl-Rip)]<Pop>

Reply to topic
 
Author
Message

NarDok ®

Longevity: 8 years 9 months

Posts: 914

Торрент-статистика

Post 27-Jul-2015 22:18

[Quote]

Оркестр Поля Мориа - Под музыку Вивальди - Год: 1982
Жанр: Pop
Продолжительность: 00:41:40
Кодек: FLAC 2.0
Треклист:
Сторона 1
1. Под музыку Вивальди · Sur Un Air Du Vivaldi 3:04
2. Pulstar 3:28
3. Любовь синего цвета · L'Amour Est Bleu 2:32
4. Жаворонок · Alouette 2:10
5. Пусть нам светит солнце · Let The Sunshine In 3:34
6. Мама, мне грустно · Mamy Blue 2:46
7. Приключение · L'Avventura 2:46
Сторона 2
1. За тобой · Apres Toi 3:06
2. Прощай, любовь моя, прощай · Good Bye My Love Good Bye 3:10
3. Эль Бимбо · El Bimbo 2:30
4. Пианино на волне · Le Piano Sur La Vague 3:24
5. Бабье лето · L'Ete Indien "Africa" 3:26
6. Ты, музыка и я · Toi La Musique Et Moi 2:20
7. За любовью · Derriere L'Amour 3:24

Дополнительная информация&#58;

© Мелодия.
© Тбилисская студия грамзаписи. 33 С60—14675-6.
Оцифровка собственная - стерео 24/192.
Воспроизведение - Denon DP-45F, картридж Grado Reference Sonata, фонокорректор JOLIDA JD 9, межблочник XLOHTPro.
Запись - АЦП RME HDSPe AIO, WaveLab 6.
Обработка одиночных щелчков - iZotope RX3.

Спектр, АЧХ

 

Отчёт MediaInfo&#58;

Код:
Общее
Полное имя                               : D:\Раздачи\Pop\Поль Мариа\Под музыку Вивальди\01. Под музыку Вивальди.flac
Формат                                   : FLAC
Формат/Информация                        : Free Lossless Audio Codec
Размер файла                             : 19,1 Мбайт
Продолжительность                        : 3 м. 4 с.
Режим общего битрейта                    : Переменный
Общий поток                              : 872 Кбит/сек
Аудио
Формат                                   : FLAC
Формат/Информация                        : Free Lossless Audio Codec
Продолжительность                        : 3 м. 4 с.
Вид битрейта                             : Переменный
Битрейт                                  : 872 Кбит/сек
Каналы                                   : 2 канала
Частота                                  : 44,1 КГц
Битовая глубина                          : 16 бит
Размер потока                            : 19,1 Мбайт (100%)
Библиотека кодирования                   : libFLAC 1.2.1 (UTC 2007-09-17)
Общее
Полное имя                               : D:\Раздачи\Pop\Поль Мариа\Под музыку Вивальди\02. Pulstar.flac
Формат                                   : FLAC
Формат/Информация                        : Free Lossless Audio Codec
Размер файла                             : 20,4 Мбайт
Продолжительность                        : 3 м. 28 с.
Режим общего битрейта                    : Переменный
Общий поток                              : 822 Кбит/сек
Аудио
Формат                                   : FLAC
Формат/Информация                        : Free Lossless Audio Codec
Продолжительность                        : 3 м. 28 с.
Вид битрейта                             : Переменный
Битрейт                                  : 821 Кбит/сек
Каналы                                   : 2 канала
Частота                                  : 44,1 КГц
Битовая глубина                          : 16 бит
Размер потока                            : 20,4 Мбайт (100%)
Библиотека кодирования                   : libFLAC 1.2.1 (UTC 2007-09-17)
Общее
Полное имя                               : D:\Раздачи\Pop\Поль Мариа\Под музыку Вивальди\03. Любовь синего цвета.flac
Формат                                   : FLAC
Формат/Информация                        : Free Lossless Audio Codec
Размер файла                             : 14,9 Мбайт
Продолжительность                        : 2 м. 32 с.
Режим общего битрейта                    : Переменный
Общий поток                              : 820 Кбит/сек
Аудио
Формат                                   : FLAC
Формат/Информация                        : Free Lossless Audio Codec
Продолжительность                        : 2 м. 32 с.
Вид битрейта                             : Переменный
Битрейт                                  : 820 Кбит/сек
Каналы                                   : 2 канала
Частота                                  : 44,1 КГц
Битовая глубина                          : 16 бит
Размер потока                            : 14,9 Мбайт (100%)
Библиотека кодирования                   : libFLAC 1.2.1 (UTC 2007-09-17)
Общее
Полное имя                               : D:\Раздачи\Pop\Поль Мариа\Под музыку Вивальди\04. Жаворонок.flac
Формат                                   : FLAC
Формат/Информация                        : Free Lossless Audio Codec
Размер файла                             : 12,9 Мбайт
Продолжительность                        : 2 м. 10 с.
Режим общего битрейта                    : Переменный
Общий поток                              : 834 Кбит/сек
Аудио
Формат                                   : FLAC
Формат/Информация                        : Free Lossless Audio Codec
Продолжительность                        : 2 м. 10 с.
Вид битрейта                             : Переменный
Битрейт                                  : 834 Кбит/сек
Каналы                                   : 2 канала
Частота                                  : 44,1 КГц
Битовая глубина                          : 16 бит
Размер потока                            : 12,9 Мбайт (100%)
Библиотека кодирования                   : libFLAC 1.2.1 (UTC 2007-09-17)
Общее
Полное имя                               : D:\Раздачи\Pop\Поль Мариа\Под музыку Вивальди\05. Пусть нам светит солнце.flac
Формат                                   : FLAC
Формат/Информация                        : Free Lossless Audio Codec
Размер файла                             : 23,4 Мбайт
Продолжительность                        : 3 м. 34 с.
Режим общего битрейта                    : Переменный
Общий поток                              : 916 Кбит/сек
Аудио
Формат                                   : FLAC
Формат/Информация                        : Free Lossless Audio Codec
Продолжительность                        : 3 м. 34 с.
Вид битрейта                             : Переменный
Битрейт                                  : 916 Кбит/сек
Каналы                                   : 2 канала
Частота                                  : 44,1 КГц
Битовая глубина                          : 16 бит
Размер потока                            : 23,4 Мбайт (100%)
Библиотека кодирования                   : libFLAC 1.2.1 (UTC 2007-09-17)
Общее
Полное имя                               : D:\Раздачи\Pop\Поль Мариа\Под музыку Вивальди\06. Мама, мне грустно.flac
Формат                                   : FLAC
Формат/Информация                        : Free Lossless Audio Codec
Размер файла                             : 16,3 Мбайт
Продолжительность                        : 2 м. 46 с.
Режим общего битрейта                    : Переменный
Общий поток                              : 826 Кбит/сек
Аудио
Формат                                   : FLAC
Формат/Информация                        : Free Lossless Audio Codec
Продолжительность                        : 2 м. 46 с.
Вид битрейта                             : Переменный
Битрейт                                  : 826 Кбит/сек
Каналы                                   : 2 канала
Частота                                  : 44,1 КГц
Битовая глубина                          : 16 бит
Размер потока                            : 16,3 Мбайт (100%)
Библиотека кодирования                   : libFLAC 1.2.1 (UTC 2007-09-17)
Общее
Полное имя                               : D:\Раздачи\Pop\Поль Мариа\Под музыку Вивальди\07. Приключение.flac
Формат                                   : FLAC
Формат/Информация                        : Free Lossless Audio Codec
Размер файла                             : 16,7 Мбайт
Продолжительность                        : 2 м. 46 с.
Режим общего битрейта                    : Переменный
Общий поток                              : 842 Кбит/сек
Аудио
Формат                                   : FLAC
Формат/Информация                        : Free Lossless Audio Codec
Продолжительность                        : 2 м. 46 с.
Вид битрейта                             : Переменный
Битрейт                                  : 842 Кбит/сек
Каналы                                   : 2 канала
Частота                                  : 44,1 КГц
Битовая глубина                          : 16 бит
Размер потока                            : 16,7 Мбайт (100%)
Библиотека кодирования                   : libFLAC 1.2.1 (UTC 2007-09-17)
Общее
Полное имя                               : D:\Раздачи\Pop\Поль Мариа\Под музыку Вивальди\08. За тобой.flac
Формат                                   : FLAC
Формат/Информация                        : Free Lossless Audio Codec
Размер файла                             : 19,1 Мбайт
Продолжительность                        : 3 м. 6 с.
Режим общего битрейта                    : Переменный
Общий поток                              : 863 Кбит/сек
Аудио
Формат                                   : FLAC
Формат/Информация                        : Free Lossless Audio Codec
Продолжительность                        : 3 м. 6 с.
Вид битрейта                             : Переменный
Битрейт                                  : 863 Кбит/сек
Каналы                                   : 2 канала
Частота                                  : 44,1 КГц
Битовая глубина                          : 16 бит
Размер потока                            : 19,1 Мбайт (100%)
Библиотека кодирования                   : libFLAC 1.2.1 (UTC 2007-09-17)
Общее
Полное имя                               : D:\Раздачи\Pop\Поль Мариа\Под музыку Вивальди\09. Прощай, любовь моя, прощай.flac
Формат                                   : FLAC
Формат/Информация                        : Free Lossless Audio Codec
Размер файла                             : 18,9 Мбайт
Продолжительность                        : 3 м. 10 с.
Режим общего битрейта                    : Переменный
Общий поток                              : 833 Кбит/сек
Аудио
Формат                                   : FLAC
Формат/Информация                        : Free Lossless Audio Codec
Продолжительность                        : 3 м. 10 с.
Вид битрейта                             : Переменный
Битрейт                                  : 833 Кбит/сек
Каналы                                   : 2 канала
Частота                                  : 44,1 КГц
Битовая глубина                          : 16 бит
Размер потока                            : 18,9 Мбайт (100%)
Библиотека кодирования                   : libFLAC 1.2.1 (UTC 2007-09-17)
Общее
Полное имя                               : D:\Раздачи\Pop\Поль Мариа\Под музыку Вивальди\10. Эль Бимбо.flac
Формат                                   : FLAC
Формат/Информация                        : Free Lossless Audio Codec
Размер файла                             : 16,8 Мбайт
Продолжительность                        : 2 м. 30 с.
Режим общего битрейта                    : Переменный
Общий поток                              : 940 Кбит/сек
Аудио
Формат                                   : FLAC
Формат/Информация                        : Free Lossless Audio Codec
Продолжительность                        : 2 м. 30 с.
Вид битрейта                             : Переменный
Битрейт                                  : 939 Кбит/сек
Каналы                                   : 2 канала
Частота                                  : 44,1 КГц
Битовая глубина                          : 16 бит
Размер потока                            : 16,8 Мбайт (100%)
Библиотека кодирования                   : libFLAC 1.2.1 (UTC 2007-09-17)
Общее
Полное имя                               : D:\Раздачи\Pop\Поль Мариа\Под музыку Вивальди\11. Пианино на волне.flac
Формат                                   : FLAC
Формат/Информация                        : Free Lossless Audio Codec
Размер файла                             : 18,8 Мбайт
Продолжительность                        : 3 м. 24 с.
Режим общего битрейта                    : Переменный
Общий поток                              : 772 Кбит/сек
Аудио
Формат                                   : FLAC
Формат/Информация                        : Free Lossless Audio Codec
Продолжительность                        : 3 м. 24 с.
Вид битрейта                             : Переменный
Битрейт                                  : 772 Кбит/сек
Каналы                                   : 2 канала
Частота                                  : 44,1 КГц
Битовая глубина                          : 16 бит
Размер потока                            : 18,8 Мбайт (100%)
Библиотека кодирования                   : libFLAC 1.2.1 (UTC 2007-09-17)
Общее
Полное имя                               : D:\Раздачи\Pop\Поль Мариа\Под музыку Вивальди\12. Бабье лето.flac
Формат                                   : FLAC
Формат/Информация                        : Free Lossless Audio Codec
Размер файла                             : 21,6 Мбайт
Продолжительность                        : 3 м. 26 с.
Режим общего битрейта                    : Переменный
Общий поток                              : 878 Кбит/сек
Аудио
Формат                                   : FLAC
Формат/Информация                        : Free Lossless Audio Codec
Продолжительность                        : 3 м. 26 с.
Вид битрейта                             : Переменный
Битрейт                                  : 878 Кбит/сек
Каналы                                   : 2 канала
Частота                                  : 44,1 КГц
Битовая глубина                          : 16 бит
Размер потока                            : 21,6 Мбайт (100%)
Библиотека кодирования                   : libFLAC 1.2.1 (UTC 2007-09-17)
Общее
Полное имя                               : D:\Раздачи\Pop\Поль Мариа\Под музыку Вивальди\13. Ты, музыка и я.flac
Формат                                   : FLAC
Формат/Информация                        : Free Lossless Audio Codec
Размер файла                             : 13,8 Мбайт
Продолжительность                        : 2 м. 20 с.
Режим общего битрейта                    : Переменный
Общий поток                              : 827 Кбит/сек
Аудио
Формат                                   : FLAC
Формат/Информация                        : Free Lossless Audio Codec
Продолжительность                        : 2 м. 20 с.
Вид битрейта                             : Переменный
Битрейт                                  : 826 Кбит/сек
Каналы                                   : 2 канала
Частота                                  : 44,1 КГц
Битовая глубина                          : 16 бит
Размер потока                            : 13,8 Мбайт (100%)
Библиотека кодирования                   : libFLAC 1.2.1 (UTC 2007-09-17)
Общее
Полное имя                               : D:\Раздачи\Pop\Поль Мариа\Под музыку Вивальди\14. За любовью.flac
Формат                                   : FLAC
Формат/Информация                        : Free Lossless Audio Codec
Размер файла                             : 20,1 Мбайт
Продолжительность                        : 3 м. 24 с.
Режим общего битрейта                    : Переменный
Общий поток                              : 828 Кбит/сек
Аудио
Формат                                   : FLAC
Формат/Информация                        : Free Lossless Audio Codec
Продолжительность                        : 3 м. 24 с.
Вид битрейта                             : Переменный
Битрейт                                  : 828 Кбит/сек
Каналы                                   : 2 канала
Частота                                  : 44,1 КГц
Битовая глубина                          : 16 бит
Размер потока                            : 20,1 Мбайт (100%)
Библиотека кодирования                   : libFLAC 1.2.1 (UTC 2007-09-17)

_________________

Other forum [Profile] [PM]
Display posts from previous:    
Reply to topic

The time now is: Today 23:48

All times are GMT + 3 Hours



You cannot post new topics in this forum
You cannot reply to topics in this forum
You cannot edit your posts in this forum
You cannot delete your posts in this forum
You cannot vote in polls in this forum
You cannot attach files in this forum
You cannot download files in this forum