Today is a free download without charge Download

Armik - Romantic Spanish Guitar Vol.2 (2015) [FLAC|Lossless]<Latin, Flamenco>

Reply to topic
 
Author
Message

sashau ®

Gender:

Longevity: 9 years

Posts: 3497

Торрент-статистика

Post 04-May-2015 10:16

[Quote]

Armik - Romantic Spanish Guitar Vol.2- Год: 2015
Жанр: Latin, Flamenco
Издатель: Bolero Records
Каталог: BOL7172
Продолжительность: 00:50:24
Кодек: FLAC
Битрейт: Lossless
Тип рипа: image+.cue
Наличие сканов: есть
Rip by Boris1
Треклист:
01. Winds of Passion (4:35)
02. Breathless (4:55)
03. Guitanova (4:39)
04. Isla Mujeres (4:39)
05. Runaway Lovers (4:52)
06. Escape to Paradise (4:33)
07. Bella Melodia (5:05)
08. My Love For You (4:42)
09. Playa Del Carmen (4:46)
10. Sunsets In Cruz Bay (4:32)
11. Solo Guitarra (3:06)

Отчёт ЕАС&#58;

Код:
Exact Audio Copy V1.0 beta 3 from 29. August 2011
EAC extraction logfile from 30. April 2015, 12:41
Armik / Romantic Spanish Guitar Vol.2
Used drive  : PIONEER BD-RW   BDR-TD03   Adapter: 0  ID: 1
Read mode               : Secure
Utilize accurate stream : Yes
Defeat audio cache      : Yes
Make use of C2 pointers : No
Read offset correction                      : 667
Overread into Lead-In and Lead-Out          : No
Fill up missing offset samples with silence : Yes
Delete leading and trailing silent blocks   : No
Null samples used in CRC calculations       : Yes
Used interface                              : Native Win32 interface for Win NT & 2000
Used output format              : User Defined Encoder
Selected bitrate                : 768 kBit/s
Quality                         : High
Add ID3 tag                     : No
Command line compressor         : C:\Program Files (x86)\Exact Audio Copy\FLAC\FLAC.EXE
Additional command line options : -6 -V -T "ARTIST=%artist%" -T "TITLE=%title%" -T "ALBUM=%albumtitle%" -T "DATE=%year%" -T "TRACKNUMBER=%tracknr%" -T "GENRE=%genre%" -T "COMMENT=%comment%" -T "BAND=%albuminterpret%" -T "ALBUMARTIST=%albuminterpret%" -T "COMPOSER=%composer%" %haslyrics%--tag-from-file=LYRICS="%lyricsfile%"%haslyrics% -T "DISCNUMBER=%cdnumber%" -T "TOTALDISCS=%totalcds%" -T "TOTALTRACKS=%numtracks%" %hascover%--picture="%coverfile%"%hascover% %source% -o %dest%
TOC of the extracted CD
     Track |   Start  |  Length  | Start sector | End sector
    ---------------------------------------------------------
        1  |  0:00.00 |  4:35.74 |         0    |    20698
        2  |  4:35.74 |  4:55.73 |     20699    |    42896
        3  |  9:31.72 |  4:39.69 |     42897    |    63890
        4  | 14:11.66 |  4:39.04 |     63891    |    84819
        5  | 18:50.70 |  4:52.07 |     84820    |   106726
        6  | 23:43.02 |  4:33.28 |    106727    |   127229
        7  | 28:16.30 |  5:05.14 |    127230    |   150118
        8  | 33:21.44 |  4:42.29 |    150119    |   171297
        9  | 38:03.73 |  4:46.10 |    171298    |   192757
       10  | 42:50.08 |  4:32.62 |    192758    |   213219
       11  | 47:22.70 |  3:06.37 |    213220    |   227206
Range status and errors
Selected range
     Filename C:\Users\Deris\Desktop\5rmk1\Armik - Romantic Spanish Guitar Vol.2.wav
     Peak level 100.0 %
     Extraction speed 4.7 X
     Range quality 100.0 %
     Test CRC B6FAEA35
     Copy CRC B6FAEA35
     Copy OK
No errors occurred
AccurateRip summary
Track  1  not present in database
Track  2  not present in database
Track  3  not present in database
Track  4  not present in database
Track  5  not present in database
Track  6  not present in database
Track  7  not present in database
Track  8  not present in database
Track  9  not present in database
Track 10  not present in database
Track 11  not present in database
None of the tracks are present in the AccurateRip database
End of status report
---- CUETools DB Plugin V2.1.3
[CTDB TOCID: uwmjEmh_WrasuftOCPjOtUqXsjw-] disk not present in database, Submit result: uwmjEmh_WrasuftOCPjOtUqXsjw- has been uploaded
==== Log checksum B849DECEEFABB91B9CD6F87D0765500DF7F444D8C43628295DA1174ED240EC44 ====

Отчёт auCDtect Task manager&#58;

Код:
-----------------------
DON'T MODIFY THIS FILE
-----------------------
PERFORMER: auCDtect Task Manager, ver. 1.6.0 RC1 build 1.6.0.1
Copyright (c) 2008-2010 y-soft. All rights reserved
http://y-soft.org
ANALYZER: auCDtect: CD records authenticity detector, version 0.8.2
Copyright (c) 2004 Oleg Berngardt. All rights reserved.
Copyright (c) 2004 Alexander Djourik. All rights reserved.
FILE: Armik - Romantic Spanish Guitar Vol.2.flac
  Size: 386394446 Hash: FEAF95A4E49810728AE37E95A4A35022 Accuracy: -m0
  Conclusion: CDDA 100%
  Signature: 641C769CBAD7778FCD5CA8D7E8A8847C4EE3FADB
Other forum [Profile] [PM]
Display posts from previous:    
Reply to topic

The time now is: Today 23:47

All times are GMT + 3 Hours



You cannot post new topics in this forum
You cannot reply to topics in this forum
You cannot edit your posts in this forum
You cannot delete your posts in this forum
You cannot vote in polls in this forum
You cannot attach files in this forum
You cannot download files in this forum