Today is a free download without charge Download

(Lo-Fi, New Age, Chill) VA - Emmanuelle: The Private Collection by Claude Challe (2004) [ image +cue, APE ] ,Wagram Records, Lossless

Reply to topic
 
Author
Message

Koralina ®

Longevity: 9 years 4 months

Posts: 994

Location: Lithuania

Торрент-статистика

Post 18-Oct-2011 11:58

[Quote]

VA - Emmanuelle: The Private Collection by Claude Challe (2004)
Производство: VA
Жанр: Lo-Fi, New Age, Chill
Год выпуска альбома: 2004
Аудиокодек: APE
Тип рипа:image +cue
Лейбл издания: Wagram Records
Продолжительность: 00.57.32
01 - Jeremiah’ days / 7.M.
02 - Emmanuelle / Natasja Vermeer & Laurent Dury
03 - Aqua / Laurent Dury
04 - Mon Palais de Solitude / Sherazade
05 - King In my Empire (king version) / Rythm & Sound W/ Corner Campbell
06 - Penso Ascoltando / Mondomo
07 - Breather 2000 (Arithunda Mix) / Afterlife
08 - Fairy Dust / Natasja Vermeer
09 - (They Long To Be) Close To You / JOSE PADILLA
10 - Jungle Fever (Chakaschas) / Louie Vega
11 - Adios Nonino (electronic mix) / Hi Perspective feat. Lady Gatica
12 - Melissa - Chumbera

Спектр


 

LOG

Exact Audio Copy V0.99 prebeta 4 from 23. January 2008
Отчёт EAC об извлечении, выполненном 1. марта 2010, 11:47
Various Artists / Claude Challe Presents Emmanuelle - The Private Collection
Дисковод: VEBK 7CL6ZWX Adapter: 5 ID: 0
Режим чтения : Скоростной
Коррекция смещения при чтении : 6
Способность читать области Lead-in и Lead-out : Нет
Заполнение пропущенных сэмплов тишиной : Да
Удаление блоков с тишиной в начале и конце : Нет
При вычислениях CRC использовались нулевые сэмплы : Нет
Интерфейс : Встроенный Win32-интерфейс для Win NT/2000
Выходной формат : Внутренние WAV-операции
Формат сэмплов : 44.100 Гц; 16 бит; стерео
TOC извлечённого CD
Трек | Старт | Длительность | Начальный сектор | Конечный сектор
---------------------------------------------------------------------
1 | 0:00.00 | 2:16.16 | 0 | 10215
2 | 2:16.16 | 3:46.03 | 10216 | 27168
3 | 6:02.19 | 5:26.06 | 27169 | 51624
4 | 11:28.25 | 4:59.12 | 51625 | 74061
5 | 16:27.37 | 5:30.25 | 74062 | 98836
6 | 21:57.62 | 6:21.11 | 98837 | 127422
7 | 28:18.73 | 3:12.00 | 127423 | 141822
8 | 31:30.73 | 6:54.24 | 141823 | 172896
9 | 38:25.22 | 5:19.57 | 172897 | 196878
10 | 43:45.04 | 4:14.42 | 196879 | 215970
11 | 47:59.46 | 4:53.33 | 215971 | 237978
12 | 52:53.04 | 4:39.09 | 237979 | 258912
Характеристики диапазона извлечения и сообщения об ошибках
Выбранный диапазон
Имя файла E:\Temp\Эксперимент Неро\Various Artists - Claude Challe Presents Emmanuelle - The Private Collection.wav
Пиковый уровень 100.0 %
CRC копии A69E84D9
Копирование... OK
Ошибок не произошло
Конец отчёта

Non-compilant Cue

REM GENRE Ambient
REM DATE 2004
REM DISCID BD0FF70D
REM COMMENT "ExactAudioCopy v0.95b2"
PERFORMER "Various Artists"
TITLE "Claude Challe presents Emmanuelle (The Private Collection)"
FILE "CDImage.ape" WAVE
TRACK 01 AUDIO
TITLE "jeremiah' days"
PERFORMER "7.m."
INDEX 01 00:00:00
TRACK 02 AUDIO
TITLE "emmanuelle"
PERFORMER "natasja vermeer & laurent dury"
INDEX 01 02:16:16
TRACK 03 AUDIO
TITLE "aqua (detente et evasion)"
PERFORMER " laurent dury"
INDEX 01 06:02:19
TRACK 04 AUDIO
TITLE "mon palais de solitude"
PERFORMER "sherazade"
INDEX 00 11:28:24
INDEX 01 11:28:25
TRACK 05 AUDIO
TITLE "king in my empire (king mix)"
PERFORMER "rythm & sound with cornel campell"
INDEX 00 16:27:36
INDEX 01 16:27:37
TRACK 06 AUDIO
TITLE "penso ascoltando"
PERFORMER "mondomo"
INDEX 00 21:57:61
INDEX 01 21:57:62
TRACK 07 AUDIO
TITLE "breather 2000 (arithunda mix)"
PERFORMER "afterlife"
INDEX 00 28:18:72
INDEX 01 28:18:73
TRACK 08 AUDIO
TITLE "fairy dust"
PERFORMER "natasja vermeer"
INDEX 00 31:30:72
INDEX 01 31:30:73
TRACK 09 AUDIO
TITLE "indian samba"
PERFORMER "ohm-g"
INDEX 00 38:25:21
INDEX 01 38:25:22
TRACK 10 AUDIO
TITLE "jungle fever"
PERFORMER "louie vega"
INDEX 00 43:45:03
INDEX 01 43:45:04
TRACK 11 AUDIO
TITLE "adios nomino (electronic mix)"
PERFORMER "hi perspective feat. lady gatica"
INDEX 00 47:59:45
INDEX 01 47:59:46
TRACK 12 AUDIO
TITLE "melissa"
PERFORMER "chumbera"
INDEX 00 52:53:03
INDEX 01 52:53:04

_________________
Other forum [Profile] [PM]

Felikss7

Longevity: 8 years 4 months

Posts: 36

Торрент-статистика

Post 20-Apr-2015 00:02 (after 3 years 6 months)

[Quote]

Раздайте пожалуйста

_________________
Если увидишь отдыхающего - помоги ему!!!
Other forum [Profile] [PM]
Display posts from previous:    
Reply to topic

The time now is: Today 18:11

All times are GMT + 3 Hours



You cannot post new topics in this forum
You cannot reply to topics in this forum
You cannot edit your posts in this forum
You cannot delete your posts in this forum
You cannot vote in polls in this forum
You cannot attach files in this forum
You cannot download files in this forum