Today is a free download without charge Download

Александр Медведев | 10 ноу-хау на съёмке, до которых вы не додумались (2013) PCRec

Reply to topic
 
Author
Message

Omen ®

Longevity: 7 years 1 month

Posts: 181090

Торрент-статистика

Post 03-Apr-2015 20:51

[Quote]

Александр Медведев
10 ноу-хау на съёмке, до которых вы не додумались
- Автор (режиссер): Александр Медведев
Жанр: Фотосъемка
Продолжительность: 04:41:40
Качество видео: PCRec
Видеокодек: AVC
Битрейт видео: ~30 - 781 kbps
Размер кадра: 768х432
Аудиокодек: AAC 2.0
Битрейт аудио: 125 - 129 kbps (CBR), 2 Ch, 44100 Hz
Описание:
Мастер-класс от Fotoshkola.net.
Темы мастер-класса:
Позирование, выбор ракурса, свет, экспозиция и другие моменты;
Как очень сильно облегчить себе жизнь в 10 конкретных советах с подробным разбором;
Как сэкономить себе пару лет хождения по граблям и поднять свой уровень скачком?
Бонус:
Александр Медведев - Системы ценностей и как с ними работать.
Дарья Булавина - Фотографии известных людей.

MediaInfo:

Код:
Общее
Полное имя                               : C:\Медведев А. - 10 ноу-хау на съёмке, до которых вы не додумались - 2013\Бонус\Булавина Д. - Фотографии известных людей.flv
Формат                                   : Flash Video
Размер файла                             : 84,2 Мбайт
Продолжительность                        : 59 м.
Общий поток                              : 198 Кбит/сек
Видео
Формат                                   : AVC
Формат/Информация                        : Advanced Video Codec
Профиль формата                          : [url=mailto:Main@L4.1]Main@L4.1[/url]
Параметр CABAC формата                   : Да
Параметр ReFrames формата                : 1 кадр
Параметр GOP формата                     : M=1, N=60
Идентификатор кодека                     : 7
Продолжительность                        : 59 м.
Битрейт                                  : 781 Кбит/сек
Ширина                                   : 768 пикселей
Высота                                   : 432 пикселя
Соотношение сторон                       : 16:9
Режим частоты кадров                     : Постоянный
Частота кадров                           : 5,000 кадров/сек
Цветовое пространство                    : YUV
Субдискретизация насыщенности            : 4:2:0
Битовая глубина                          : 8 бит
Тип развёртки                            : Прогрессивная
Бит/(Пиксели*Кадры)                      : 0.471
Размер потока                            : 333 Мбайт
Аудио
Формат                                   : AAC
Формат/Информация                        : Advanced Audio Codec
Профиль формата                          : LC
Идентификатор кодека                     : 10
Продолжительность                        : 59 м.
Битрейт                                  : 125 Кбит/сек
Каналы                                   : 2 канала
Расположение каналов                     : Front: L R
Частота                                  : 44,1 КГц
Метод сжатия                             : С потерями
Размер потока                            : 53,2 Мбайт (63%)
Скриншоты:
       

Дополнительные скриншоты:

       
 
Other forum [Profile] [PM]
Similar theme
Forum Topic Author Torrent Replies Last Post
./templates/default/images/folder_dl.gif Компьютерная литература Александр Ватаманюк | Создание и обслуживание сетей в Windows 7 [2010] [PDF] sashau
1 | 0

0 | 960

14

2013-01-10 16:57
sashau Latest
./templates/default/images/folder_dl.gif Авторская песня Александр Розенбаум - 100 лучших композиций (2013) [MP3|320 кб/с] UndegraundMen
1 | 0

0 | 2285

22

2013-05-31 03:03
UndegraundMen Latest
./templates/default/images/folder_dl.gif Обучающее видео Александр Свет | Профессиональная обработка RAW в Capture One Pro 7 (2013) [PCRec] UndegraundMen
1 | 0

0 | 4370

50

2013-11-28 23:01
UndegraundMen Latest
./templates/default/images/folder_dl.gif Компьютерная литература Александр Тулупьев и др. | Байесовские сети. Логико-вероятностный подход (2006) [DJVU] UndegraundMen
0 | 1

0 | 1844

9

2013-12-22 23:00
UndegraundMen Latest
./templates/default/images/folder_dl.gif Современная проза, классика, поэзия Крыласов Александр - Лекарство от пробок [Александр Крыласов, 2014 г., 320 kbps, MP3] Omen
1 | 0

0 | 940

1

2014-06-15 08:01
Omen Latest
./templates/default/images/folder_dl.gif Обучающее видео Алексей Меркулов | Комплект курсов по 2D и 3D-моделированию в AutoCAD (2014) Omen
0 | 1

3 | 10032

283

2015-04-24 17:33
Галина123 Latest
./templates/default/images/folder_dl.gif Обучающее видео [Profileschool] Алексей Шадрин | Пленочная фотография: за и против (Алексей Шадрин)[ 2015.,Обучающее видео]PCRec sashau
1 | 0

0 | 3069

28

2015-04-13 04:16
sashau Latest
./templates/default/images/folder_dl.gif Обучающее видео Меркулов Алексей | Использование AutoCAD на 100% 2.0 (2015) PCRec [H.264/720p] Omen
1 | 0

1 | 3021

103

2017-11-25 21:03
aybulat Latest
./templates/default/images/folder_dl.gif Обучающее видео Александр Медведев | Фотография по полкам. Свет. Часть 2 (2016) PCRec [H.264/1080p] Omen
1 | 0

0 | 1212

10

2016-03-09 15:01
Omen Latest
./templates/default/images/folder_dl.gif Обучающее видео Александр Медведев | Фотография по полкам. Образ и позировка. Часть 1 (2016) PCRec [H.264/1080p] Omen
1 | 0

0 | 1368

22

2016-10-27 01:00
Omen Latest
Display posts from previous:    
Reply to topic

The time now is: Today 10:49

All times are GMT + 3 Hours



You cannot post new topics in this forum
You cannot reply to topics in this forum
You cannot edit your posts in this forum
You cannot delete your posts in this forum
You cannot vote in polls in this forum
You cannot attach files in this forum
You cannot download files in this forum