Сегодня идет свободное скачивание без начисления Download

Александр Медведев | 10 ноу-хау на съёмке, до которых вы не додумались (2013) PCRec

Ответить на тему
 
Автор
Сообщение

Omen ®

Стаж: 5 лет 11 месяцев

Сообщений: 184329

Торрент-статистика

Пост 03-Апр-2015 20:51

[Цитировать]

Александр Медведев
10 ноу-хау на съёмке, до которых вы не додумались
- Автор (режиссер): Александр Медведев
Жанр: Фотосъемка
Продолжительность: 04:41:40
Качество видео: PCRec
Видеокодек: AVC
Битрейт видео: ~30 - 781 kbps
Размер кадра: 768х432
Аудиокодек: AAC 2.0
Битрейт аудио: 125 - 129 kbps (CBR), 2 Ch, 44100 Hz
Описание:
Мастер-класс от Fotoshkola.net.
Темы мастер-класса:
Позирование, выбор ракурса, свет, экспозиция и другие моменты;
Как очень сильно облегчить себе жизнь в 10 конкретных советах с подробным разбором;
Как сэкономить себе пару лет хождения по граблям и поднять свой уровень скачком?
Бонус:
Александр Медведев - Системы ценностей и как с ними работать.
Дарья Булавина - Фотографии известных людей.

MediaInfo:

Код:
Общее
Полное имя                               : C:\Медведев А. - 10 ноу-хау на съёмке, до которых вы не додумались - 2013\Бонус\Булавина Д. - Фотографии известных людей.flv
Формат                                   : Flash Video
Размер файла                             : 84,2 Мбайт
Продолжительность                        : 59 м.
Общий поток                              : 198 Кбит/сек
Видео
Формат                                   : AVC
Формат/Информация                        : Advanced Video Codec
Профиль формата                          : [url=mailto:Main@L4.1]Main@L4.1[/url]
Параметр CABAC формата                   : Да
Параметр ReFrames формата                : 1 кадр
Параметр GOP формата                     : M=1, N=60
Идентификатор кодека                     : 7
Продолжительность                        : 59 м.
Битрейт                                  : 781 Кбит/сек
Ширина                                   : 768 пикселей
Высота                                   : 432 пикселя
Соотношение сторон                       : 16:9
Режим частоты кадров                     : Постоянный
Частота кадров                           : 5,000 кадров/сек
Цветовое пространство                    : YUV
Субдискретизация насыщенности            : 4:2:0
Битовая глубина                          : 8 бит
Тип развёртки                            : Прогрессивная
Бит/(Пиксели*Кадры)                      : 0.471
Размер потока                            : 333 Мбайт
Аудио
Формат                                   : AAC
Формат/Информация                        : Advanced Audio Codec
Профиль формата                          : LC
Идентификатор кодека                     : 10
Продолжительность                        : 59 м.
Битрейт                                  : 125 Кбит/сек
Каналы                                   : 2 канала
Расположение каналов                     : Front: L R
Частота                                  : 44,1 КГц
Метод сжатия                             : С потерями
Размер потока                            : 53,2 Мбайт (63%)
Скриншоты:
       

Дополнительные скриншоты:

       
 
Вне форума [Профиль] [ЛС]
Похожие темы
Форум Тема Автор Торрент Отв. Посл. сообщение
./templates/default/images/folder_dl.gif Приключения, детектив, боевик, триллер Алексеев Сергей - Удар "Молнии" [Литвинова Наталия, 2012, 96 kbps, MP3] Omen
1 | 0

0 | 1033

6

2012-12-11 05:28
Omen Последнее
./templates/default/images/folder_dl.gif Обучающее видео Александр Тулупов | Отрисовка света на фото в Фотошопе в стиле Silent Hill [2013] [PCRec] UndegraundMen
1 | 0

0 | 3203

37

2013-04-09 00:00
UndegraundMen Последнее
./templates/default/images/folder_dl.gif Обучающее видео Александр Заморин | Как научиться фотографировать на зеркальную фотокамеру [2013] PCRec UndegraundMen
1 | 0

0 | 3857

58

2013-08-23 11:00
UndegraundMen Последнее
./templates/default/images/folder_dl.gif Обучающее видео Алекс Мэй | Академия секса (2012) [SATRip] UndegraundMen
1 | 0

0 | 11131

693

2013-09-30 23:05
UndegraundMen Последнее
./templates/default/images/folder_dl.gif Обучающее видео Александр Свет | Профессиональная обработка RAW в Capture One Pro 7 (2013) [PCRec] UndegraundMen
1 | 0

0 | 3133

49

2013-11-28 23:01
UndegraundMen Последнее
./templates/default/images/folder_dl.gif Обучающее видео Александр Заморин | Lightroom – практическая магия (2013) [PCRec] UndegraundMen
1 | 0

0 | 4205

89

2013-12-03 22:26
UndegraundMen Последнее
./templates/default/images/folder_dl.gif Обучающее видео [profileschool] Алексей Довгуля | Студийная съемка (2014) PCRec Omen
1 | 0

0 | 3268

108

2014-09-28 20:05
Omen Последнее
./templates/default/images/folder_dl.gif Обучающее видео [Profileschool] Алексей Фурсов | Введение в предметную съемку (2014) PCRec Omen
1 | 0

0 | 2374

81

2014-11-06 19:19
Omen Последнее
./templates/default/images/folder_dl.gif Обучающее видео [Profileschool] Алексей Шадрин | Управление визуальным объемом и резкостью изображений (2014) PCRec Omen
1 | 0

0 | 2671

129

2014-11-14 15:38
Omen Последнее
./templates/default/images/folder_dl.gif Обучающее видео Александр Киселев и Галина Исаева | Обучающий курс по съемке Love Story (2014) WEBRip [H.264/1080p] Omen
1 | 0

0 | 1151

35

2015-02-01 23:57
Omen Последнее
Показать сообщения:    
Ответить на тему

Текущее время: Сегодня 05:46

Часовой пояс: GMT + 3



Вы не можете начинать темы
Вы не можете отвечать на сообщения
Вы не можете редактировать свои сообщения
Вы не можете удалять свои сообщения
Вы не можете голосовать в опросах
Вы не можете прикреплять файлы к сообщениям
Вы не можете скачивать файлы