Today is a free download without charge Download

[Profileschool] Алексей Шадрин | Калибровка принтера: от А до Я (2015) PCRec

Reply to topic
 
Author
Message

Omen ®

Longevity: 7 years 1 month

Posts: 181090

Торрент-статистика

Post 25-Mar-2015 21:19

[Quote]

[Profileschool] Алексей Шадрин
Калибровка принтера: от А до Я
- Автор (режиссер): Алексей Шадрин
Жанр: Принтеры
Продолжительность: 04:29:14
Качество видео: PCRec
Видеокодек: AVC (H264)
Битрейт видео: ~1200Kbps
Размер кадра: 1920x1080
Аудиокодек: AAC 2.0
Битрейт аудио: 128 kbps (VBR), 2 Ch, 44100 Hz
Описание:
Этим семинаром эксперт и идеолог колориметрии Алексей Шадрин продолжает обучать всех, кто стремится обрести полную самостоятельность в работе с цифровыми изображениями, то есть, свободу от сторонних исполнителей, в первую очередь — лабораторий печати. Семинар прежде всего рассчитан на тех, кто посетил или планирует предварительно посетить семинары по CMS и калибровке монитора. Совокупные знания, полученные в результате обучения на этих трех семинарах дадут вам доскональное понимание процессов цветопередачи и осмысленное управление ими на всех этапах создания ваших фотографий.
Итак, на семинаре «Калибровка принтера: от А до Я» вы научитесь самостоятельно выполнять настройку принтеров, благодаря чему получать на отпечатках то же, что видите на экране калиброванного монитора. Пониманию процесса будет серьезно способствовать организованная видеотрансляция с демонстрацией результатов выполняемых действий. Семинар традиционно дает основательную теоретическую базу и подкреплен огромным практическим опытом.

MediaInfo

Общее
Полное имя Calibration.mp4
Формат : MPEG-4
Профиль формата : Base Media / Version 2
Идентификатор кодека : mp42
Размер файла : 2,46 Гбайт
Продолжительность : 4 ч. 29 м.
Режим общего битрейта : Переменный
Общий поток : 1306 Кбит/сек
Дата кодирования : UTC 2015-03-24 08:28:38
Дата пометки : UTC 2015-03-24 12:59:59
Видео
Идентификатор : 1
Формат : AVC
Формат/Информация : Advanced Video Codec
Профиль формата : [url=mailto:Main@L5.0]Main@L5.0[/url]
Параметр CABAC формата : Да
Параметр ReFrames формата : 5 кадров
Идентификатор кодека : avc1
Идентификатор кодека/Информация : Advanced Video Coding
Продолжительность : 4 ч. 29 м.
Битрейт : 1208 Кбит/сек
Ширина : 1920 пикселей
Высота : 1080 пикселей
Соотношение сторон : 16:9
Режим частоты кадров : Постоянный
Частота кадров : 30,000 кадров/сек
Цветовое пространство : YUV
Субдискретизация насыщенности : 4:2:0
Битовая глубина : 8 бит
Тип развёртки : Прогрессивная
Бит/(Пиксели*Кадры) : 0.019
Размер потока : 2,27 Гбайт (93%)
Дата кодирования : UTC 2015-03-24 08:28:38
Дата пометки : UTC 2015-03-24 12:59:58
Основные цвета : BT.709
Характеристики трансфера : BT.709
Коэффициенты матрицы : BT.709
Аудио
Идентификатор : 2
Формат : AAC
Формат/Информация : Advanced Audio Codec
Профиль формата : LC
Идентификатор кодека : 40
Продолжительность : 4 ч. 29 м.
Вид битрейта : Переменный
Битрейт : 93,2 Кбит/сек
Максимальный битрейт : 134 Кбит/сек
Каналы : 2 канала
Расположение каналов : Front: L R
Частота : 44,1 КГц
Метод сжатия : С потерями
Размер потока : 179 Мбайт (7%)
Дата кодирования : UTC 2015-03-24 08:28:38
Дата пометки : UTC 2015-03-24 08:36:53
Скриншоты:        
Other forum [Profile] [PM]
Similar theme
Forum Topic Author Torrent Replies Last Post
./templates/default/images/folder_dl.gif Обучающее видео [Profileschool] Я и фотолаборатория: правила взаимоотношений [2015, RUS] Omen
1 | 0

0 | 1367

12

2015-09-26 00:00
Omen Latest
Display posts from previous:    
Reply to topic

The time now is: Today 06:37

All times are GMT + 3 Hours



You cannot post new topics in this forum
You cannot reply to topics in this forum
You cannot edit your posts in this forum
You cannot delete your posts in this forum
You cannot vote in polls in this forum
You cannot attach files in this forum
You cannot download files in this forum