Today is a free download without charge Download

(Power Metal) [CD] FireForce - Дискография [Full Releases]: 2011-2014, FLAC (image+.cue), lossless

Reply to topic
 
Author
Message

Omen ®

Longevity: 7 years 1 month

Posts: 181090

Торрент-статистика

Post 26-Feb-2015 06:00

[Quote]


FireForce - Дискография

Жанр: Power Metal Носитель: CD Год издания: 2011-2014
Страна исполнителя (группы): Belgium Продолжительность: 01:44:24
Аудиокодек: FLAC (*.flac) Тип рипа: image+.cue Битрейт аудио: lossless
Источник: CD собственной коллекции Наличие сканов: Да (Complete 600 DPI)
Highland Charge (official video) Deathbringer (official video) Thunder Will Roll (official video)
-

Об исполнителе (группе)

FIREFORCE started their Battle for Freedom at the end of the year 2008.
Very quickly, the band became well-known for their excellent live gigs, and their 2009 EP “Moonlight Lady” succeeded in attracting the attention of the recording industry.
As a result, 2010 was a very creative year for the band. Their debut album “March On”, which was released the end of March 2011 throughout Europe, propelled the band out of the underground Metal scene from which it emerged, and into the hearts of the larger public, i.e. Metal fans everywhere.
The strong drive of the band’s Heavy Metal roots constantly interacts with their obvious affinity with the Power Metal genre.
However, a melodious harmonic component is always present in their work. The twelve songs on the album are characterized by solid riff structures accompanied by an excellent drum baseline that keeps on driving them forward.
The vocals truly deserve to be described as authentically Metal and never falter once throughout the album.
Summing up, “March On” is a thrilling, well-structured Heavy Metal album with definite Old School tendencies complemented by the albums contemporary production.


The band had finalized their negotiations with 7Hard Records in Germany in 2010 and had found a willing producer in MYSTIC PROPHECY vocalist R.D.Liapakis
(producer for SUICIDAL ANGELS, CRYSTAL TEARS, WINTER`S VERGE, ELDRITCH and others).
The band were able to add the finishing touch to the album by adding a guest appearance by guitarist Constantine (MYSTIC PROPHECY, DESCENDING, PRIMAL FEAR). The finished masterpiece provided a new benchmark for the Belgian Heavy Metal scene.
“March On“ is pure Heavy Metal adrenaline. It’s an album that is being driven forward relentlessly by its riveting riffs and thundering drums and rhythms that grab you by the throat. The NWOBHM-like vocals in “Fly Arrow Fly (Crécy 1346)“ remind listeners instantaneously of the early feats of HELLOWEEN, while “Born To Play Metal“ is a speedy piece of raw steel reminiscent of RUNNING WILD, especially since it features an awesome chorus.
“The Only Way“ will definitely get your head moving, too, and the phat and groovy mid-tempo breaks that keep on popping up in this song will absolutely blow you away. None of these twelve songs seem to show any kind of weakness. On the contrary, the album grows and becomes more powerful with each song. With “March On” FIREFORCE deliver a calling card that proves their True Metal and Old School heritage worthy.
A small club tour with Pegazus brought them in Belgium, Holland, Austria and Switzerland. Even Cyprus was visited as a special guest for Mystic Prophecy. Other shows were played with Tokyo Blade, Girlschool, Blaze, Roxxcalibur, Skullfist, Iron Mask, Crimson Glory, Nightmare, Hell, Avantasia, Tygers Of PanTang etc…
PPM fest and R-Mine metalfest were played with a big success!
The recordings of the new album "Deathbringer" were started in march 2013, again under supervision of R.D. Liapakis and engineer Christian Schmid in the Music Factory Prophecy Studio's in Germany,
and was released on june 20th 2014.
Soon after the release, lead guitarist Yves Vermeersch traded places with Thierry van der Zanden and Christophe De Combe passed the drumsticks to Sepp Coeck.
Links:
http://fireforceband.com/bio
http://www.metal-archives.com/bands/FireForce/3540310937
-

2011 - March On [7hard Records 7H-047-2] (00:50:37)


01. Coastal Battery 04:17
02. The Only Way 04:59
03. Firestorm 04:02
04. Horus (Bringer of Order) 04:26
05. 1302 - Battle for Freedom 05:15
06. Moonlight Lady 04:27
07. Annihilation 04:37
08. Fly Arrow Fly (Crécy 1346) 03:31
09. Mona Lisa 03:47
10. Hold Your Ground 04:04
11. Born to Play Metal 03:31
12. Metal Rages On 03:29
Flype (Double Diamond) - Vocals
Steve Deleu (Gwyllion) - Guitars
Erwin Suetens (Double Diamond) - Guitars
MetalPat - Bass
Tom Heijnen (Influence) - Drums
R.D. Liapakis - Mastering, Mixing, Producer
Christian Schmid - Mastering, Mixing
Eric Philippe - Cover art

Лог создания рипа

Exact Audio Copy V1.0 beta 3 from 29. August 2011
EAC extraction logfile from 19. February 2015, 18:17
FireForce / March On
Used drive : ATAPI iHAS122 W Adapter: 2 ID: 0
Read mode : SecureUtilize accurate stream : YesDefeat audio cache : YesMake use of C2 pointers : No
Read offset correction : 48Overread into Lead-In and Lead-Out : NoFill up missing offset samples with silence : YesDelete leading and trailing silent blocks : NoNull samples used in CRC calculations : YesUsed interface : Installed external ASPI interface
Used output format : User Defined EncoderSelected bitrate : 1024 kBit/sQuality : HighAdd ID3 tag : NoCommand line compressor : C:\Program Files\FLAC\flac.exeAdditional command line options : -V -8 -T "Date=%year%" -T "Genre=%genre%" -T"COMMENT=Ripped by Ilijan" -8 -V %source%
TOC of the extracted CD
Track | Start | Length | Start sector | End sector --------------------------------------------------------- 1 | 0:00.00 | 4:18.13 | 0 | 19362 2 | 4:18.13 | 5:00.14 | 19363 | 41876 3 | 9:18.27 | 4:03.03 | 41877 | 60104 4 | 13:21.30 | 4:27.09 | 60105 | 80138 5 | 17:48.39 | 5:15.73 | 80139 | 103836 6 | 23:04.37 | 4:28.17 | 103837 | 123953 7 | 27:32.54 | 4:37.63 | 123954 | 144791 8 | 32:10.42 | 3:31.74 | 144792 | 160690 9 | 35:42.41 | 3:47.50 | 160691 | 177765 10 | 39:30.16 | 4:05.11 | 177766 | 196151 11 | 43:35.27 | 3:32.08 | 196152 | 212059 12 | 47:07.35 | 3:29.63 | 212060 | 227797
Range status and errors
Selected range
Filename D:\ИЛИЯН\FireForce - March On.wav
Peak level 100.0 % Extraction speed 3.8 X Range quality 100.0 % Test CRC 156B9C80 Copy CRC 156B9C80 Copy OK
No errors occurred
AccurateRip summary
Track 1 accurately ripped (confidence 2) [9EAC17BD] (AR v2)Track 2 accurately ripped (confidence 2) [EA9EC6B2] (AR v2)Track 3 accurately ripped (confidence 2) [B759001C] (AR v2)Track 4 accurately ripped (confidence 2) [25F41CDE] (AR v2)Track 5 accurately ripped (confidence 2) [F8C466BC] (AR v2)Track 6 accurately ripped (confidence 2) [7C67C37A] (AR v2)Track 7 accurately ripped (confidence 2) [9C86FEC6] (AR v2)Track 8 accurately ripped (confidence 2) [9337FB57] (AR v2)Track 9 accurately ripped (confidence 2) [D01D57EA] (AR v2)Track 10 accurately ripped (confidence 2) [8A770B6E] (AR v2)Track 11 accurately ripped (confidence 2) [F78E9BD9] (AR v2)Track 12 accurately ripped (confidence 2) [A83917FC] (AR v2)
All tracks accurately ripped
End of status report
---- CUETools DB Plugin V2.1.3
[CTDB TOCID: L.CgxEBgzhZ7EzWFAAdyAKvxlFw-] found, Submit result: L.CgxEBgzhZ7EzWFAAdyAKvxlFw- has been confirmed[ca3e63ce] (2/2) Accurately ripped
==== Log checksum 6E7D8350713484592FBD7166DD0F898939CD056D4F5012247CC53390B16CD9E9 ====

2014 - Deathbringer [Limb Music GmbH LMP 1406-144] (00:53:47)


01. Deathbringer 04:11
02. Highland Charge 03:56
03. Combat Metal 04:19
04. Thunder Will Roll 03:44
05. To the Battle 04:33
06. Attracted to Sin and Lust 04:01
07. Words of Hatred 03:09
08. King of Lies 04:36
09. Aeons 04:00
10. Anubis - Lord of the Dead 04:19
11. Sekhmet - Warrior Goddess 03:53
12. MN29 05:01
13. Gangland (Tygers of Pan Tang cover) 04:00
Flype (Double Diamond) - Vocals
Erwin Suetens (Double Diamond) - Guitars
Yves Vermeersch (Epsylon) - Guitars
Geert Van Dyck - Bass
Christophe De Combe - Drums
Olivier Bourgi - Photography
Jens de Haes - Photography
Anestis Goudas - Cover art, Artwork
Christian Schmid - Engineering, Mixing, Mastering
R.D. Liapakis - Producer, Mixing, Mastering

Лог создания рипа

Exact Audio Copy V1.0 beta 3 from 29. August 2011
EAC extraction logfile from 19. February 2015, 18:48
Fireforce / Deathbringer
Used drive : ATAPI iHAS122 W Adapter: 2 ID: 0
Read mode : SecureUtilize accurate stream : YesDefeat audio cache : YesMake use of C2 pointers : No
Read offset correction : 48Overread into Lead-In and Lead-Out : NoFill up missing offset samples with silence : YesDelete leading and trailing silent blocks : NoNull samples used in CRC calculations : YesUsed interface : Installed external ASPI interface
Used output format : User Defined EncoderSelected bitrate : 1024 kBit/sQuality : HighAdd ID3 tag : NoCommand line compressor : C:\Program Files\FLAC\flac.exeAdditional command line options : -V -8 -T "Date=%year%" -T "Genre=%genre%" -T"COMMENT=Ripped by Ilijan" -8 -V %source%
TOC of the extracted CD
Track | Start | Length | Start sector | End sector --------------------------------------------------------- 1 | 0:00.00 | 4:11.13 | 0 | 18837 2 | 4:11.13 | 3:56.29 | 18838 | 36566 3 | 8:07.42 | 4:19.26 | 36567 | 56017 4 | 12:26.68 | 3:44.32 | 56018 | 72849 5 | 16:11.25 | 4:33.11 | 72850 | 93335 6 | 20:44.36 | 4:01.67 | 93336 | 111477 7 | 24:46.28 | 3:09.40 | 111478 | 125692 8 | 27:55.68 | 4:36.01 | 125693 | 146393 9 | 32:31.69 | 4:00.64 | 146394 | 164457 10 | 36:32.58 | 4:19.37 | 164458 | 183919 11 | 40:52.20 | 3:53.18 | 183920 | 201412 12 | 44:45.38 | 5:01.24 | 201413 | 224011 13 | 49:46.62 | 4:00.18 | 224012 | 242029
Range status and errors
Selected range
Filename D:\ИЛИЯН\Fireforce - Deathbringer.wav
Peak level 99.9 % Extraction speed 3.8 X Range quality 99.9 % Test CRC EB851719 Copy CRC EB851719 Copy OK
No errors occurred
AccurateRip summary
Track 1 accurately ripped (confidence 2) [63EDB7DB] (AR v2)Track 2 accurately ripped (confidence 2) [202084F7] (AR v2)Track 3 accurately ripped (confidence 2) [79809645] (AR v2)Track 4 accurately ripped (confidence 2) [13538B23] (AR v2)Track 5 accurately ripped (confidence 2) [E7F52F35] (AR v2)Track 6 accurately ripped (confidence 2) [3538826F] (AR v2)Track 7 accurately ripped (confidence 2) [49C38D0D] (AR v2)Track 8 accurately ripped (confidence 2) [FEE1900C] (AR v2)Track 9 accurately ripped (confidence 2) [07CD84AA] (AR v2)Track 10 accurately ripped (confidence 2) [51513813] (AR v2)Track 11 accurately ripped (confidence 2) [BA36B1B7] (AR v2)Track 12 accurately ripped (confidence 2) [564F417C] (AR v2)Track 13 accurately ripped (confidence 2) [8AC0AF91] (AR v2)
All tracks accurately ripped
End of status report
---- CUETools DB Plugin V2.1.3
[CTDB TOCID: G2Yt26s.lMe_CjbQ1YFKmGJ48lI-] found, Submit result: G2Yt26s.lMe_CjbQ1YFKmGJ48lI- has been confirmed[8fbf7e7a] (3/3) Accurately ripped
==== Log checksum A103FA71E84044BBEA5C7082DBE8E6FA9FF54A9550B73D14704EE78A53F6299A ====
-
Other forum [Profile] [PM]

Dracula

Longevity: 6 years 1 month

Posts: 11044

Торрент-статистика

Post 26-Feb-2015 10:29 (after 4 hours)

Топик был перенесен из форума Metal в форум Metal


RUGUI
 
Display posts from previous:    
Reply to topic

The time now is: Today 03:40

All times are GMT + 3 Hours



You cannot post new topics in this forum
You cannot reply to topics in this forum
You cannot edit your posts in this forum
You cannot delete your posts in this forum
You cannot vote in polls in this forum
You cannot attach files in this forum
You cannot download files in this forum