Today is a free download without charge Download

(Heavy Metal) [CD] Sanctuary - Дискография [Full Releases]: 1987-2014, FLAC (image+.cue), lossless

Reply to topic
 
Author
Message

Omen ®

Longevity: 7 years 1 month

Posts: 181090

Торрент-статистика

Post 26-Feb-2015 06:00

[Quote]


Sanctuary - Дискография

Жанр: Heavy Metal Носитель: CD Год издания: 1987-2014
Страна исполнителя: United States Продолжительность: 03:14:01
Аудиокодек: FLAC (*.flac) Тип рипа: image+.cue Битрейт аудио: lossless
Источник: CD собственной коллекции Наличие сканов: Да (Complete 600 DPI)
Sanctuary - Frozen (Official Video) Sanctuary - Future Tense (Official Video)
-

1987 - Refuge Denied (Reissued 2014) [Epic ‎EK 40920] (00:39:47)


01. Battle Angels 04:51
02. Termination Force 03:41
03. Die for My Sins 03:43
04. Soldiers of Steel 05:32
05. Sanctuary 03:59
06. White Rabbit (Jefferson Airplane cover) 03:13
07. Ascension to Destiny 04:59
08. The Third War 03:54
09. Veil of Disguise 05:55
Warrel Dane - Vocals
Sean Blosl - Guitars, Vocals (additional)
Lenny Rutledge - Guitars, Vocals (additional)
Jim Sheppard - Bass
Dave Budbill - Drums, Vocals (additional)
Ed Repka - Cover art
Paul Lani - Producer #6, Mixing
Mike Amstadt - Engineering assistant
Terry Date - Engineering
Dave Mustaine - Producer
Don Grierson - Executive producer

Лог создания рипа

Exact Audio Copy V1.0 beta 3 from 29. August 2011
EAC extraction logfile from 17. February 2015, 21:42
Sanctuary / Refuge Denied
Used drive : ATAPI iHAS122 W Adapter: 2 ID: 0
Read mode : SecureUtilize accurate stream : YesDefeat audio cache : YesMake use of C2 pointers : No
Read offset correction : 48Overread into Lead-In and Lead-Out : NoFill up missing offset samples with silence : YesDelete leading and trailing silent blocks : NoNull samples used in CRC calculations : YesUsed interface : Installed external ASPI interface
Used output format : User Defined EncoderSelected bitrate : 1024 kBit/sQuality : HighAdd ID3 tag : NoCommand line compressor : C:\Program Files\FLAC\flac.exeAdditional command line options : -V -8 -T "Date=%year%" -T "Genre=%genre%" -T"COMMENT=Ripped by Ilijan" -8 -V %source%
TOC of the extracted CD
Track | Start | Length | Start sector | End sector --------------------------------------------------------- 1 | 0:00.00 | 4:51.52 | 0 | 21876 2 | 4:51.52 | 3:40.25 | 21877 | 38401 3 | 8:32.02 | 3:43.25 | 38402 | 55151 4 | 12:15.27 | 5:31.45 | 55152 | 80021 5 | 17:46.72 | 3:59.18 | 80022 | 97964 6 | 21:46.15 | 3:12.62 | 97965 | 112426 7 | 24:59.02 | 4:58.60 | 112427 | 134836 8 | 29:57.62 | 3:54.15 | 134837 | 152401 9 | 33:52.02 | 5:54.55 | 152402 | 179006
Range status and errors
Selected range
Filename D:\ИЛИЯН\Sanctuary - Refuge Denied.wav
Peak level 100.0 % Extraction speed 3.5 X Range quality 99.9 % Test CRC 10351297 Copy CRC 10351297 Copy OK
No errors occurred
AccurateRip summary
Track 1 accurately ripped (confidence 3) [6673A1E7] (AR v2)Track 2 accurately ripped (confidence 3) [FB9CBF68] (AR v2)Track 3 accurately ripped (confidence 3) [F7BE4EE8] (AR v2)Track 4 accurately ripped (confidence 3) [9C0C3303] (AR v2)Track 5 accurately ripped (confidence 3) [F832BFEF] (AR v2)Track 6 accurately ripped (confidence 3) [7E5B246A] (AR v2)Track 7 accurately ripped (confidence 3) [927D75F6] (AR v2)Track 8 accurately ripped (confidence 3) [58844153] (AR v2)Track 9 accurately ripped (confidence 3) [F2BD9E41] (AR v2)
All tracks accurately ripped
End of status report
---- CUETools DB Plugin V2.1.3
[CTDB TOCID: 0RUcjy3GoYVSbyTnk0disf3EUKw-] found, Submit result: 0RUcjy3GoYVSbyTnk0disf3EUKw- has been confirmed[3c62c2d6] (3/3) Accurately ripped
==== Log checksum 465BAF65F6B2022000E0DE9ECFE712701F797A039D00743956677054329F583E ====

1989 - Into The Mirror Black (Reissued 2014) [Epic ‎EK 45085] (00:46:56)


01. Future Tense 05:07
02. Taste Revenge 05:03
03. Long Since Dark 05:06
04. Epitaph 06:03
05. Eden Lies Obscured 05:23
06. The Mirror Black 05:06
07. Seasons of Destruction 04:51
08. One More Murder 04:20
09. Communion 05:38
Warrel Dane - Vocals
Sean Blosl - Guitars
Lenny Rutledge - Guitars
Jim Sheppard - Bass
Dave Budbill - Drums, Percussion
John Halpern - Photography
Joel Zimmerman - Art direction
Joe Barresi - Engineering (assistant)
Bruce Barris - Engineering, Mixing
Howard Benson - Producer, Mixing
Gene Kirkland - Photography

Лог создания рипа

Exact Audio Copy V1.0 beta 3 from 29. August 2011
EAC extraction logfile from 17. February 2015, 22:11
Sanctuary / Into The Mirror Black
Used drive : ATAPI iHAS122 W Adapter: 2 ID: 0
Read mode : SecureUtilize accurate stream : YesDefeat audio cache : YesMake use of C2 pointers : No
Read offset correction : 48Overread into Lead-In and Lead-Out : NoFill up missing offset samples with silence : YesDelete leading and trailing silent blocks : NoNull samples used in CRC calculations : YesUsed interface : Installed external ASPI interface
Used output format : User Defined EncoderSelected bitrate : 1024 kBit/sQuality : HighAdd ID3 tag : NoCommand line compressor : C:\Program Files\FLAC\flac.exeAdditional command line options : -V -8 -T "Date=%year%" -T "Genre=%genre%" -T"COMMENT=Ripped by Ilijan" -8 -V %source%
TOC of the extracted CD
Track | Start | Length | Start sector | End sector --------------------------------------------------------- 1 | 0:00.00 | 5:10.02 | 0 | 23251 2 | 5:10.02 | 5:03.30 | 23252 | 46006 3 | 10:13.32 | 5:07.38 | 46007 | 69069 4 | 15:20.70 | 6:05.40 | 69070 | 96484 5 | 21:26.35 | 5:23.72 | 96485 | 120781 6 | 26:50.32 | 5:09.65 | 120782 | 144021 7 | 32:00.22 | 4:53.63 | 144022 | 166059 8 | 36:54.10 | 4:23.60 | 166060 | 185844 9 | 41:17.70 | 5:38.32 | 185845 | 211226
Range status and errors
Selected range
Filename D:\ИЛИЯН\Sanctuary - Into The Mirror Black.wav
Peak level 100.0 % Extraction speed 3.7 X Range quality 99.9 % Test CRC 9595417C Copy CRC 9595417C Copy OK
No errors occurred
AccurateRip summary
Track 1 accurately ripped (confidence 1) [D6C5D54D] (AR v2)Track 2 accurately ripped (confidence 1) [6C7334C6] (AR v2)Track 3 accurately ripped (confidence 1) [4EE4D65B] (AR v2)Track 4 accurately ripped (confidence 1) [79FD1D9A] (AR v2)Track 5 accurately ripped (confidence 1) [EC4402B4] (AR v2)Track 6 accurately ripped (confidence 1) [7D763A6D] (AR v2)Track 7 accurately ripped (confidence 1) [A141D049] (AR v2)Track 8 accurately ripped (confidence 1) [A04640E4] (AR v2)Track 9 accurately ripped (confidence 1) [A2832BF4] (AR v2)
All tracks accurately ripped
End of status report
---- CUETools DB Plugin V2.1.3
[CTDB TOCID: bErG2mzg8Cks18CSv4XxQ8BO1Uo-] found, Submit result: bErG2mzg8Cks18CSv4XxQ8BO1Uo- has been confirmed[7cbd2359] (2/2) Accurately ripped
==== Log checksum F2D054778AA53C286BCD0CF08B1AD97789D5A609B40B4E949049FD2A344D8C55 ====

2014 - The Year The Sun Died (Japanese Edition) [Avalon MICP-11176] (00:53:39)


01. Arise and Purify 04:13
02. Let the Serpent Follow Me 04:46
03. Exitium (Anthem of the Living) 04:52
04. Question Existence Fading 04:20
05. I Am Low 05:15
06. Frozen 05:46
07. One Final Day (Sworn to Believe) 03:30
08. The World Is Wired 05:08
09. The Dying Age 04:52
10. Ad Vitam Aeternam 01:30
11. The Year the Sun Died 05:33
12. Waiting for the Sun (The Doors cover) 03:48
Warrel Dane - Vocals
Brad Hull - Guitars
Lenny Rutledge - Guitars
Jim Sheppard - Bass
Dave Budbill - Drums
Travis Smith - Artwork
Zeuss - Producer

Лог создания рипа

Exact Audio Copy V1.0 beta 3 from 29. August 2011
EAC extraction logfile from 17. February 2015, 20:44
Sanctuary / The Year The Sun Died (Japan)
Used drive : ATAPI iHAS122 W Adapter: 2 ID: 0
Read mode : SecureUtilize accurate stream : YesDefeat audio cache : YesMake use of C2 pointers : No
Read offset correction : 48Overread into Lead-In and Lead-Out : NoFill up missing offset samples with silence : YesDelete leading and trailing silent blocks : NoNull samples used in CRC calculations : YesUsed interface : Installed external ASPI interface
Used output format : User Defined EncoderSelected bitrate : 1024 kBit/sQuality : HighAdd ID3 tag : NoCommand line compressor : C:\Program Files\FLAC\flac.exeAdditional command line options : -V -8 -T "Date=%year%" -T "Genre=%genre%" -T"COMMENT=Ripped by Ilijan" -8 -V %source%
TOC of the extracted CD
Track | Start | Length | Start sector | End sector --------------------------------------------------------- 1 | 0:00.00 | 4:13.53 | 0 | 19027 2 | 4:13.53 | 4:46.51 | 19028 | 40528 3 | 9:00.29 | 4:53.41 | 40529 | 62544 4 | 13:53.70 | 4:20.11 | 62545 | 82055 5 | 18:14.06 | 5:15.27 | 82056 | 105707 6 | 23:29.33 | 5:46.12 | 105708 | 131669 7 | 29:15.45 | 3:30.61 | 131670 | 147480 8 | 32:46.31 | 5:08.38 | 147481 | 170618 9 | 37:54.69 | 4:52.41 | 170619 | 192559 10 | 42:47.35 | 1:30.22 | 192560 | 199331 11 | 44:17.57 | 5:33.28 | 199332 | 224334 12 | 49:51.10 | 3:47.68 | 224335 | 241427
Range status and errors
Selected range
Filename D:\ИЛИЯН\Sanctuary - The Year The Sun Died (Japan).wav
Peak level 99.6 % Extraction speed 3.9 X Range quality 100.0 % Test CRC 85A5666F Copy CRC 85A5666F Copy OK
No errors occurred
AccurateRip summary
Track 1 cannot be verified as accurate (confidence 15) [7B6BB227], AccurateRip returned [A6928AD4] (AR v2)Track 2 cannot be verified as accurate (confidence 15) [974A3867], AccurateRip returned [CC582624] (AR v2)Track 3 cannot be verified as accurate (confidence 15) [849653B9], AccurateRip returned [93C6A736] (AR v2)Track 4 cannot be verified as accurate (confidence 15) [564F250C], AccurateRip returned [C942D2C9] (AR v2)Track 5 cannot be verified as accurate (confidence 15) [78AE0BAF], AccurateRip returned [CB980602] (AR v2)Track 6 cannot be verified as accurate (confidence 15) [0252F8F0], AccurateRip returned [436A802A] (AR v2)Track 7 cannot be verified as accurate (confidence 15) [47ED8392], AccurateRip returned [2C9F8551] (AR v2)Track 8 cannot be verified as accurate (confidence 15) [9F3095D8], AccurateRip returned [522EE06B] (AR v2)Track 9 cannot be verified as accurate (confidence 15) [1B42AB32], AccurateRip returned [AB23DAC2] (AR v2)Track 10 cannot be verified as accurate (confidence 15) [265E7107], AccurateRip returned [47DFE7A6] (AR v2)Track 11 cannot be verified as accurate (confidence 15) [7DE0C10A], AccurateRip returned [AC105AAF] (AR v2)Track 12 cannot be verified as accurate (confidence 15) [8A507E3B], AccurateRip returned [D0CFEB87] (AR v2)
No tracks could be verified as accurateYou may have a different pressing from the one(s) in the database
End of status report
---- CUETools DB Plugin V2.1.3
[CTDB TOCID: Edn_GyD2Bal6wb8jfSHN3pBNJik-] found, Submit result: Edn_GyD2Bal6wb8jfSHN3pBNJik- has been confirmed[91f2a2bf] (22/22) Accurately ripped
==== Log checksum 44C32231D9864D4CC6A2555F24701BA0E66697E5CDB976943B848D2F032AE5E1 ====

2014 - The Year The Sun Died (Limited Edition) [Century Media Records Ltd. 9983390] (00:53:39)


01. Arise and Purify 04:13
02. Let the Serpent Follow Me 04:46
03. Exitium (Anthem of the Living) 04:52
04. Question Existence Fading 04:20
05. I Am Low 05:15
06. Frozen 05:46
07. One Final Day (Sworn to Believe) 03:30
08. The World Is Wired 05:08
09. The Dying Age 04:52
10. Ad Vitam Aeternam 01:30
11. The Year the Sun Died 05:33
12. Waiting for the Sun (The Doors cover) 03:48
Warrel Dane - Vocals
Brad Hull - Guitars
Lenny Rutledge - Guitars
Jim Sheppard - Bass
Dave Budbill - Drums
Travis Smith - Artwork
Zeuss - Producer

Лог создания рипа

Exact Audio Copy V1.0 beta 3 from 29. August 2011
EAC extraction logfile from 17. February 2015, 21:15
Sanctuary / The Year The Sun Died
Used drive : ATAPI iHAS122 W Adapter: 2 ID: 0
Read mode : SecureUtilize accurate stream : YesDefeat audio cache : YesMake use of C2 pointers : No
Read offset correction : 48Overread into Lead-In and Lead-Out : NoFill up missing offset samples with silence : YesDelete leading and trailing silent blocks : NoNull samples used in CRC calculations : YesUsed interface : Installed external ASPI interface
Used output format : User Defined EncoderSelected bitrate : 1024 kBit/sQuality : HighAdd ID3 tag : NoCommand line compressor : C:\Program Files\FLAC\flac.exeAdditional command line options : -V -8 -T "Date=%year%" -T "Genre=%genre%" -T"COMMENT=Ripped by Ilijan" -8 -V %source%
TOC of the extracted CD
Track | Start | Length | Start sector | End sector --------------------------------------------------------- 1 | 0:00.00 | 4:13.53 | 0 | 19027 2 | 4:13.53 | 4:46.51 | 19028 | 40528 3 | 9:00.29 | 4:53.41 | 40529 | 62544 4 | 13:53.70 | 4:20.11 | 62545 | 82055 5 | 18:14.06 | 5:15.27 | 82056 | 105707 6 | 23:29.33 | 5:46.12 | 105708 | 131669 7 | 29:15.45 | 3:30.61 | 131670 | 147480 8 | 32:46.31 | 5:08.38 | 147481 | 170618 9 | 37:54.69 | 4:52.41 | 170619 | 192559 10 | 42:47.35 | 1:30.22 | 192560 | 199331 11 | 44:17.57 | 5:33.28 | 199332 | 224334 12 | 49:51.10 | 3:47.68 | 224335 | 241427
Range status and errors
Selected range
Filename D:\ИЛИЯН\Sanctuary - The Year The Sun Died.wav
Peak level 99.6 % Extraction speed 4.0 X Range quality 100.0 % Test CRC 73B876AA Copy CRC 73B876AA Copy OK
No errors occurred
AccurateRip summary
Track 1 accurately ripped (confidence 15) [A6928AD4] (AR v2)Track 2 accurately ripped (confidence 15) [CC582624] (AR v2)Track 3 accurately ripped (confidence 15) [93C6A736] (AR v2)Track 4 accurately ripped (confidence 15) [C942D2C9] (AR v2)Track 5 accurately ripped (confidence 15) [CB980602] (AR v2)Track 6 accurately ripped (confidence 15) [436A802A] (AR v2)Track 7 accurately ripped (confidence 15) [2C9F8551] (AR v2)Track 8 accurately ripped (confidence 15) [522EE06B] (AR v2)Track 9 accurately ripped (confidence 15) [AB23DAC2] (AR v2)Track 10 accurately ripped (confidence 15) [47DFE7A6] (AR v2)Track 11 accurately ripped (confidence 15) [AC105AAF] (AR v2)Track 12 accurately ripped (confidence 15) [D0CFEB87] (AR v2)
All tracks accurately ripped
End of status report
---- CUETools DB Plugin V2.1.3
[CTDB TOCID: Edn_GyD2Bal6wb8jfSHN3pBNJik-] found, Submit result: already submitted[91f2a2bf] (23/23) Accurately ripped
==== Log checksum 082A4D07106D411952CB5ADC5D1A1343A89159DBE045C4743430C677ABFDE44B ====
-- Encyclopaedia Metallum --
Other forum [Profile] [PM]

Dracula

Longevity: 6 years 1 month

Posts: 10690

Торрент-статистика

Post 26-Feb-2015 10:28 (after 4 hours)

Топик был перенесен из форума Metal в форум Metal


RUGUI
 
Similar theme
Forum Topic Author Torrent Replies Last Post
./templates/default/images/folder_dl.gif Metal (Heavy Metal) [CD] Pokolgep - Totalis Metal - 1986/2012, FLAC (image+.cue), lossless Omen
0 | 1

0 | 1099

0

2014-12-25 23:00
Omen Latest
./templates/default/images/folder_dl.gif Metal (Heavy Metal) Impellitteri - Venom [European Bonus Track Edition] - 2015, MP3, 320 kbps Omen
0 | 1

0 | 1612

17

2015-04-17 00:09
Omen Latest
./templates/default/images/folder_dl.gif Metal (Heavy Metal) Ram - Svbversvm - 2015, MP3, 320 kbps Omen
1 | 0

0 | 1811

9

2015-10-30 00:00
Omen Latest
./templates/default/images/folder_dl.gif Metal (Heavy Metal) [CDR] Чёрный кофе - Трёхдисковое подарочное издание "Студии А" - 2010, FLAC (image+.cue), lossless Soldat_5
1 | 0

1 | 399

0

2019-11-22 14:08
Dracula Latest
Display posts from previous:    
Reply to topic

The time now is: Today 03:01

All times are GMT + 3 Hours



You cannot post new topics in this forum
You cannot reply to topics in this forum
You cannot edit your posts in this forum
You cannot delete your posts in this forum
You cannot vote in polls in this forum
You cannot attach files in this forum
You cannot download files in this forum