Today is a free download without charge Download

Хелависа c группой Мельница, Рождественский 3D концерт 2015 г. (лучшее) в 3Д / 3D (Naturalist3D) [2015, Музыкальное видео, фолк-рок, HDrip-AVC] Half SideBySide / Горизонтальная анаморфная стереопара

Reply to topic
 
Author
Message

Omen ®

Longevity: 7 years 8 months

Posts: 181087

Торрент-статистика

Post 30-Jan-2015 00:20

[Quote]

Хелависа c группой Мельница, Рождественский 3D концерт 2015 г. (лучшее)
Год выпуска: 2015
Страна: Russia
Студия: Naturalist3D
Жанр: Музыкальное видео, фолк-рок
Продолжительность: 00:38:55
Перевод: Не требуется
Режиссер: Naturalist3D-Описание: Рождественский Концерт Хелависы (Hellawes) в составе фолк группы "Мельница" (Melnitsa) в Санкт-Петербурге 08.01.2015; [Лучшие песни].
Настоящее имя солистки: Наталья Андреевна О’Шей (Natalia O'Shea) -
российская певица, автор песен, музыкант, вокалистка и лидер нескольких музыкальных групп.
Сочетание красивой музыки, хорошего голоса и выразительных текстов. Собирает многотысячные аудитории на своих концертах.-Список 3D видеозаписей песен (Включает две премьеры 2015 г.):
-------------------------------------------------------------
1) Господин горных дорог [Длительность: 6:08 ; Размер: 570 Mb]
2) На север [Длительность: 3:31 ; Размер: 332 Mb]
3) Королевна [Длительность: 5:43 ; Размер: 536 Mb]
4) Дорога сна [Длительность: 3:22 ; Размер: 318 Mb]
5) Золото тумана (премьера) [Длительность: 3:42 ; Размер: 346 Mb]
6) Невеста полоза [Длительность: 5:06 ; Размер: 479 Mb]
7) Никогда (премьера) [Длительность: 5:19 ; Размер: 503 Mb]
8) Рапунцель [Длительность: 2:53 ; Размер: 273 Mb]
9) Зима [Длительность: 4:31 ; Размер: 419 Mb]-Качество: HDrip
Контейнер: mp4
Формат 3D: Half SideBySide / Горизонтальная анаморфная стереопара
Порядок ракурсов: левый ракурс первый
Видео кодек: h.264
Аудио кодек: AAC
Видео: AVC H264 / High@L4.0 / NTSC / 1920x1080p / VBR / 16:9 / 12.7 Mbps / 23.976 fps
Аудио: Russian / AAC LC / 2 channels (stereo) / 48.0 KHz / 320 Kbps
Субтитры: отсутствуют

MediaInfo

General
Complete name : C:\1_hellawes_gospodin_gornyx_dorog_3d.mp4
Format : MPEG-4
Format profile : Base Media / Version 2
Codec ID : mp42
File size : 571 MiB
Duration : 6mn 7s
Overall bit rate mode : Variable
Overall bit rate : 13.0 Mbps
Encoded date : UTC 2015-01-19 22:40:27
Tagged date : UTC 2015-01-19 22:40:27
Video
ID : 2
Format : AVC
Format/Info : Advanced Video Codec
Format profile : High@L4.0
Format settings, CABAC : Yes
Format settings, ReFrames : 2 frames
Format settings, GOP : M=2, N=12
Codec ID : avc1
Codec ID/Info : Advanced Video Coding
Duration : 6mn 7s
Bit rate mode : Variable
Bit rate : 12.7 Mbps
Maximum bit rate : 15.0 Mbps
Width : 1 920 pixels
Height : 1 080 pixels
Display aspect ratio : 16:9
Frame rate mode : Constant
Frame rate : 23.976 fps
Color space : YUV
Chroma subsampling : 4:2:0
Bit depth : 8 bits
Scan type : Progressive
Bits/(Pixel*Frame) : 0.255
Stream size : 557 MiB (98%)
Language : English
Encoded date : UTC 2015-01-19 22:40:27
Tagged date : UTC 2015-01-19 22:40:27
Audio
ID : 1
Format : AAC
Format/Info : Advanced Audio Codec
Format profile : LC
Codec ID : 40
Duration : 6mn 7s
Bit rate mode : Constant
Bit rate : 320 Kbps
Channel(s) : 2 channels
Channel positions : Front: L R
Sampling rate : 48.0 KHz
Compression mode : Lossy
Stream size : 14.0 MiB (2%)
Language : English
Encoded date : UTC 2015-01-19 22:40:27
Tagged date : UTC 2015-01-19 22:40:27

Скриншоты

Other forum [Profile] [PM]
Display posts from previous:    
Reply to topic

The time now is: Today 16:10

All times are GMT + 3 Hours



You cannot post new topics in this forum
You cannot reply to topics in this forum
You cannot edit your posts in this forum
You cannot delete your posts in this forum
You cannot vote in polls in this forum
You cannot attach files in this forum
You cannot download files in this forum