Today is a free download without charge Download

Виктор Цой - Ремиксы (2009) [FLAC|Lossless]<Pop\Dance>

Reply to topic
 
Author
Message

Omen ®

Longevity: 7 years 1 month

Posts: 181090

Торрент-статистика

Post 28-Dec-2014 13:05

[Quote]

Виктор Цой - Ремиксы (2009)- Год: 2009
Жанр: Pop\Dance
Продолжительность: 01:09:33
Издатель (лейбл): Квадро Диск
Номер по каталогу: КТL09-140
Тип рипа: image+.cue
Кодек: FLAC
Битрейт: Lossless
Треклист:
1. Печаль (remix DJ HiTretz)
2. Звезда по имени Солнце (remix DJ Vini)
3. Спокойная ночь (remix DJ Karas & DJ MarDee)
4. Печаль (remix DJ Shevtsov & DJ Galin)
5. Дальше действовать будем мы (remix DJ Vini)
6. Война (remix NoName-project)
7. Группа крови (remix DJ Vini)
8. В наших глазах (remix DJ Karas & DJ MarDee)
9. Восьмиклассница (remix DJ Vini)
10. Война (remix DJ Max Korovaev)
11. Спокойная Ночь (remix NoName-project)
12. Троллейбус (remix DJ Rise & DJ Scream)
13. Последний герой (remix DJ Max Korovaev)
14. Хочу перемен! (remix DJ Vini)

Отчёт ЕАС&#58;

Код:
Exact Audio Copy V1.0 beta 1 from 15. November 2010
Отчёт EAC об извлечении, выполненном 13. марта 2011, 18:17
Виктор Цой / Ремиксы
Дисковод: ASUS    DRW-24B1LT   Adapter: 1  ID: 0
Режим чтения                 : Достоверность
Использование точного потока : Да
Отключение кэша аудио        : Да
Использование указателей C2  : Нет
Коррекция смещения при чтении                     : 6
Способность читать области Lead-in и Lead-out     : Нет
Заполнение пропущенных сэмплов тишиной            : Да
Удаление блоков с тишиной в начале и конце        : Нет
При вычислениях CRC использовались нулевые сэмплы : Да
Интерфейс                                         : Встроенный Win32-интерфейс для Win NT/2000
Выходной формат : Внутренние WAV-операции
Формат сэмплов  : 44.100 Гц; 16 бит; стерео
TOC извлечённого CD
     Трек |   Старт  | Длительность | Начальный сектор | Конечный сектор
    ---------------------------------------------------------------------
       1  |  0:00.00 |    6:33.23   |           0      |      29497
       2  |  6:33.23 |    5:50.69   |       29498      |      55816
       3  | 12:24.17 |    5:52.06   |       55817      |      82222
       4  | 18:16.23 |    3:42.03   |       82223      |      98875
       5  | 21:58.26 |    4:42.03   |       98876      |     120028
       6  | 26:40.29 |    3:39.17   |      120029      |     136470
       7  | 30:19.46 |    6:33.29   |      136471      |     165974
       8  | 36:53.00 |    3:38.50   |      165975      |     182374
       9  | 40:31.50 |    6:56.66   |      182375      |     213640
      10  | 47:28.41 |    3:10.39   |      213641      |     227929
      11  | 50:39.05 |    4:24.25   |      227930      |     247754
      12  | 55:03.30 |    4:03.35   |      247755      |     266014
      13  | 59:06.65 |    3:15.11   |      266015      |     280650
      14  | 62:22.01 |    7:11.19   |      280651      |     312994
Характеристики диапазона извлечения и сообщения об ошибках
Выбранный диапазон
     Имя файла T:\LossLess\Виктор Цой - Ремиксы\Виктор Цой - Ремиксы.wav
     Пиковый уровень 66.6 %
0.7 X
     Качество диапазона 100.0 %
     CRC теста AC8C498B
     CRC копии AC8C498B
     Копирование... OK
Ошибок не произошло
Конец отчёта
====  450527C5D9C99EA56C42F4A35F18A2AF2D3B62D64209890052321E72CC5D3D99 ====

Отчёт auCDtect Task manager&#58;

Код:
-----------------------
DON'T MODIFY THIS FILE
-----------------------
PERFORMER: auCDtect Task Manager, ver. 1.6.0 RC1 build 1.6.0.1
Copyright (c) 2008-2010 y-soft. All rights reserved
http://y-soft.org
ANALYZER: auCDtect: CD records authenticity detector, version 0.8.2
Copyright (c) 2004 Oleg Berngardt. All rights reserved.
Copyright (c) 2004 Alexander Djourik. All rights reserved.
FILE: Виктор Цой - Ремиксы.flac
  Size: 443025824 Hash: 9C73048C9DA3F2DB5CB126E5F01CB3AC Accuracy: -m0
  Conclusion: CDDA 100%
  Signature: FFFF7465C9B4D1AD8E8DF75CE7AFC1C3098D3042
Other forum [Profile] [PM]
Similar theme
Forum Topic Author Torrent Replies Last Post
./templates/default/images/folder_dl.gif Отечественные cериалы Меч / 1 - 25 серии из 25 (Рустам Уразаев, Виктор Конисевич) [2009 г., боевик, драма, DVDRip] nsa1977
1 | 0

2 | 2349

20

2011-05-02 03:06
romo777 Latest
./templates/default/images/folder_dl.gif Фильмы до 2000 года Гений (2 серии из 2) [Виктор Сергеев] (Комедия, Криминал, 1991) DVDRip Omen
1 | 0

0 | 3990

19

2013-06-01 21:54
Omen Latest
Display posts from previous:    
Reply to topic

The time now is: Today 18:12

All times are GMT + 3 Hours



You cannot post new topics in this forum
You cannot reply to topics in this forum
You cannot edit your posts in this forum
You cannot delete your posts in this forum
You cannot vote in polls in this forum
You cannot attach files in this forum
You cannot download files in this forum