Today is a free download without charge Download

Артур Николаевич Адамян (Artur Adamyan) - Armenian & European Spiritual Music (1998) [FLAC|Lossless]<Organ>

Reply to topic
 
Author
Message

sashau ®

Gender:

Longevity: 8 years 10 months

Posts: 3497

Торрент-статистика

Post 24-Dec-2014 14:10

[Quote]

Buxtehude, Bach J.S., Yekmalyan, Komitas, Airivanetzi, Taronnaci, Shnorhali
Armenian & European Spiritual Music
Артур Николаевич Адамян, орган.
- Год: 1998
Жанр: Organ
Продолжительность: 00:56:52
Кодек: FLAC
Битрейт: Lossless
Тип рипа: image+.cue
Издатель (лейбл): © + ® Artur Adamyan
Номер по каталогу: n/a
Страна изготовитель: Armenia. Yerevan
Источник: kasatkal
Наличие сканов в содержимом раздачи: да
Треклист:
EUROPEAN SPIRITUAL MUSIC
01. Buxtehude Prelude and Fugue in D Major (05:45)
02. J.S.Bach Fantasie in C Major BWV 570 (05:52)
03. Choral 'Liebster Jesu' BWV 731 (02:40)
04. Choral 'Nun komm, der Heiden Heiland' BWV 659 (04:28)
05. Choral 'Wir Cristenleut' BWV 612 (01:45)
06. Choral 'O Mensch, bewein dein Sunde gross' BWV 622 (04:54)
07. Choral 'Ich ruf zu dir, Herr Jesu Christ' BWV 639 (02:44)
08. Choral 'Wer nur den lieben Gott lasst walten' BWV 642 (02:34)
09. Toccata and Fugue in D Minor BWV 565 (08:20)
ARMENIAN SPIRITUAL MUSIC
10. Komitas Adamyan'Sourb Astvac Metzi Urbatu' (02:24)
11. Komitas Adamyan'Dle Yaman' (02:50)
12. Komitas Adamyan'Yerg Aravotian tshnamu' (03:08)
13. Komitas MAirivanetzi'Sirt im sasani' (03:41)
14. Komitas KhTaronnaci'Khorurd khorin' (03:01)
15. Yekmalyan NShnorhali'Amen Hair Sourb' (02:38)

Дополнительная информация&#58;

Back&#58;

   
Биография:
Артур Николаевич Адамян родился в Ереване, где окончил специальную школу-десятилетку имени Чайковского, продолжил образование в Ереванской консерватории им. Комитаса по классу фортепиано (проф. Вилли Саргисян) и органа (проф. Ваагн Стамболцян). После окончания консерватории с отличием, поступил в аспирантуру при консерватории и совершенствовался по классу органа.
Начиная с 1968 года ведет активную концертную деятельность, гастролировал в США, Канаде, Японии, Греции, Болгарии, странах СНГ, Балтии как солист, так и в ансамбле с вокалистами и инструменталистами. В течение многих лет музыкант активно сотрудничает с Государственным симфоническим оркестром Армении.
Описание:
Концертную деятельность Артур Адамян успешно сочетает с преподавательской: он является доцентом Ереванской консерватории, среди его учеников – Лауреаты республиканских и международных конкурсов.
Артур Адамян - участник фестивалей органной и камерной музыки посвященных творчеству И. С. Баха. Является первым исполнителем многих новых произведений армянских композиторов (в том числе Первой симфонии А.Тертеряна), а также автором обработок и переложений для органа жемчужин армянской средневековой монодической музыки.

Отчёт ЕАС&#58;

Код:
Exact Audio Copy V0.99 prebeta 4 from 23. January 2008
EAC extraction logfile from 28. May 2010, 22:37
Artur Adamyan / Organ
Used drive  : ATAPI   DVD A  DH20A4P   Adapter: 2  ID: 1
Read mode               : Secure
Utilize accurate stream : Yes
Defeat audio cache      : Yes
Make use of C2 pointers : No
Read offset correction                      : 6
Overread into Lead-In and Lead-Out          : No
Fill up missing offset samples with silence : Yes
Delete leading and trailing silent blocks   : No
Null samples used in CRC calculations       : Yes
Used interface                              : Installed external ASPI interface
Used output format              : User Defined Encoder
Selected bitrate                : 768 kBit/s
Quality                         : High
Add ID3 tag                     : No
Command line compressor         : C:\Program Files\Exact Audio Copy\Flac\flac.exe
Additional command line options : -6 -V -T "ARTIST=%a" -T "TITLE=%t" -T "ALBUM=%g" -T "DATE=%y" -T "TRACKNUMBER=%n" -T "GENRE=%m" -T "COMMENT=%e" %s -o %d
TOC of the extracted CD
     Track |   Start  |  Length  | Start sector | End sector
    ---------------------------------------------------------
        1  |  0:00.00 |  5:45.31 |         0    |    25905
        2  |  5:45.31 |  5:52.34 |     25906    |    52339
        3  | 11:37.65 |  2:40.47 |     52340    |    64386
        4  | 14:18.37 |  4:28.57 |     64387    |    84543
        5  | 18:47.19 |  1:45.27 |     84544    |    92445
        6  | 20:32.46 |  4:54.64 |     92446    |   114559
        7  | 25:27.35 |  2:44.18 |    114560    |   126877
        8  | 28:11.53 |  2:34.45 |    126878    |   138472
        9  | 30:46.23 |  8:20.61 |    138473    |   176033
       10  | 39:07.09 |  2:24.61 |    176034    |   186894
       11  | 41:31.70 |  2:50.22 |    186895    |   199666
       12  | 44:22.17 |  3:08.34 |    199667    |   213800
       13  | 47:30.51 |  3:41.70 |    213801    |   230445
       14  | 51:12.46 |  3:01.34 |    230446    |   244054
       15  | 54:14.05 |  2:38.26 |    244055    |   255930
Range status and errors
Selected range
     Filename C:\Program Files\Exact Audio Copy\Flac\Artur Adamyan - Organ.wav
     Peak level 99.4 %
     Range quality 100.0 %
     Test CRC 9929D181
     Copy CRC 9929D181
     Copy OK
No errors occurred
AccurateRip summary
Track  1  not present in database
Track  2  not present in database
Track  3  not present in database
Track  4  not present in database
Track  5  not present in database
Track  6  not present in database
Track  7  not present in database
Track  8  not present in database
Track  9  not present in database
Track 10  not present in database
Track 11  not present in database
Track 12  not present in database
Track 13  not present in database
Track 14  not present in database
Track 15  not present in database
None of the tracks are present in the AccurateRip database
End of status report

Содержание индексной карты (*.cue&#41;&#58;

Код:
REM EDIT CUESheet Editor for CA RipTools 22.12.2014 23:30:46
REM GENRE Classical
REM DATE 1998
REM DISCID EB0D540F
REM COMMENT "ExactAudioCopy v0.99pb4"
    PERFORMER "Artur Adamyan"
    TITLE "Organ"
FILE "Artur Adamyan - Organ.flac" WAVE
  TRACK 01 AUDIO
    TITLE "Buxtehude Prelude and Fugue in D Major"
    PERFORMER "Artur Adamyan"
     INDEX 01 00:00:00
  TRACK 02 AUDIO
    TITLE "J.S.Bach Fantasie in C Major BWV 570"
    PERFORMER "Artur Adamyan"
     INDEX 01 05:45:31
  TRACK 03 AUDIO
    TITLE "Choral 'Liebster Jesu' BWV 731"
    PERFORMER "Artur Adamyan"
     INDEX 01 11:37:65
  TRACK 04 AUDIO
    TITLE "Choral 'Nun komm, der Heiden Heiland' BWV 659"
    PERFORMER "Artur Adamyan"
     INDEX 01 14:18:37
  TRACK 05 AUDIO
    TITLE "Choral 'Wir Cristenleut' BWV 612"
    PERFORMER "Artur Adamyan"
     INDEX 01 18:47:19
  TRACK 06 AUDIO
    TITLE "Choral 'O Mensch, bewein dein Sunde gross' BWV 622"
    PERFORMER "Artur Adamyan"
     INDEX 01 20:32:46
  TRACK 07 AUDIO
    TITLE "Choral 'Ich ruf zu dir, Herr Jesu Christ' BWV 639"
    PERFORMER "Artur Adamyan"
     INDEX 01 25:27:35
  TRACK 08 AUDIO
    TITLE "Choral 'Wer nur den lieben Gott lasst walten' BWV 642"
    PERFORMER "Artur Adamyan"
     INDEX 01 28:11:53
  TRACK 09 AUDIO
    TITLE "Toccata and Fugue in D Minor BWV 565"
    PERFORMER "Artur Adamyan"
     INDEX 01 30:46:23
  TRACK 10 AUDIO
    TITLE "Komitas Adamyan'Sourb Astvac Metzi Urbatu'"
    PERFORMER "Artur Adamyan"
     INDEX 01 39:07:09
  TRACK 11 AUDIO
    TITLE "Komitas Adamyan'Dle Yaman'"
    PERFORMER "Artur Adamyan"
     INDEX 01 41:31:70
  TRACK 12 AUDIO
    TITLE "Komitas Adamyan'Yerg Aravotian tshnamu'"
    PERFORMER "Artur Adamyan"
     INDEX 01 44:22:17
  TRACK 13 AUDIO
    TITLE "Komitas MAirivanetzi'Sirt im sasani'"
    PERFORMER "Artur Adamyan"
     INDEX 01 47:30:51
  TRACK 14 AUDIO
    TITLE "Komitas KhTaronnaci'Khorurd khorin'"
    PERFORMER "Artur Adamyan"
     INDEX 01 51:12:46
  TRACK 15 AUDIO
    TITLE "Yekmalyan NShnorhali'Amen Hair Sourb'"
    PERFORMER "Artur Adamyan"
     INDEX 01 54:14:05

Отчёт auCDtect Task manager&#58;

Код:
-----------------------
DON'T MODIFY THIS FILE
-----------------------
PERFORMER: auCDtect Task Manager, ver. 1.6.0 RC1 build 1.6.0.1
Copyright (c) 2008-2010 y-soft. All rights reserved
http://y-soft.org
ANALYZER: auCDtect: CD records authenticity detector, version 0.8.2
Copyright (c) 2004 Oleg Berngardt. All rights reserved.
Copyright (c) 2004 Alexander Djourik. All rights reserved.
FILE: Artur Adamyan - Organ.flac
  Size: 220717736 Hash: 2EFD74545690B2391D359E8D98064579 Accuracy: -m0
  Conclusion: CDDA 99%
  Signature: 01EC071ED38CBF95D0A3B5605A17FDD3CB35D016
Other forum [Profile] [PM]
Display posts from previous:    
Reply to topic

The time now is: Today 16:31

All times are GMT + 3 Hours



You cannot post new topics in this forum
You cannot reply to topics in this forum
You cannot edit your posts in this forum
You cannot delete your posts in this forum
You cannot vote in polls in this forum
You cannot attach files in this forum
You cannot download files in this forum