Today is a free download without charge Download

Восхождение Юпитер [трейлер] в 3Д / Jupiter Ascending [trailer] 3D (Энди Вачовски, Лана Вачовски / Andy Wachowski, Lana Wachowski) [2015, Фантастика, Фэнтези, Боевик, Приключения, HDrip-AVC] Half OverUnder / Вертикальная анаморфная стереопара

Reply to topic
 
Author
Message

Omen ®

Longevity: 7 years 1 month

Posts: 181090

Торрент-статистика

Post 21-Dec-2014 23:00

[Quote]

Восхождение Юпитер (Трейлер)
Jupiter Ascending (Trailer)
Год выпуска: 2015
Страна: США
Жанр: Фантастика, Фэнтези, Боевик, Приключения
Продолжительность: 0:02:32
Перевод: Профессиональный (дублированный)
Режиссеры: Энди Вачовски, Лана Вачовски / Andy Wachowski, Lana Wachowski-Роли исполняли:

Ченнинг Татум, Эдди Редмэйн, Мила Кунис, Гугу Мбата-Роу, Шон Бин, Дуглас Бут, Джеймс Д’Арси, Терри Гиллиам, Таппенс Мидлтон, Ванесса Кирби
-Описание: Юпитер Джонс родилась под ночным небом, и все знаки предсказывали, что девочке предстоят великие свершения. Юпитер выросла и каждый день видит во сне звезды, но просыпается в жесткой реальности, где она работает уборщицей и моет туалеты. Личная жизнь Юпитер тоже оставляет желать лучшего, пока девушка не встречает Кейна. Кейн, бывший военный охотник, прибывает на Землю, чтобы отыскать Юпитер и раскрыть девушке ее истинное предназначение. Благодаря своим генетическим особенностям Юпитер становится претенденткой невероятного наследия, способного изменить равновесие во Вселенной.-Премьера: 4 февраля 2015 (5 февраля 2015)
Релиз на Blu-Ray (DVD) (Россия): 11 июня 2015

За исходник спасибо Rishkhaan и jensen123321!
-Качество: HDRip (by Ash61) (исх. DCPrip by Rishkhaan)
Контейнер: MKV
Формат 3D: Half OverUnder / Вертикальная анаморфная стереопара
Порядок ракурсов: левый ракурс первый
Видео кодек: x264
Аудио кодек: AC3-Видео: AVC / 24.000 fps / 1920х1080p / 11.5 Mbps
Аудио: Русский / AC3 / 48 KHz / 5.1 ch / 640 Kbps (Дубляж)
Субтитры: Отсутствуют

MediaInfo

General
Unique ID : 215958142064069656097006367946739959107 (0xA27806770422E91796D7ADCBEF464543)
Complete name : E:\JupiterAscending[trailer](2015)3D-halfOU(HDRip.Ash61).mkv
Format : Matroska
Format version : Version 2
File size : 224 MiB
Duration : 2mn 31s
Overall bit rate : 12.4 Mbps
Movie name : Восхождение Юпитер [трейлер] / Jupiter Ascending [trailer] (2015) 3D
Encoded date : UTC 2014-12-11 20:06:39
Writing application : mkvmerge v5.8.0 ('No Sleep / Pillow') built on Sep 2 2012 15:37:04
Writing library : libebml v1.2.3 + libmatroska v1.3.0
Video
ID : 1
Format : AVC
Format/Info : Advanced Video Codec
Format profile : High@L4.1
Format settings, CABAC : Yes
Format settings, ReFrames : 4 frames
Codec ID : V_MPEG4/ISO/AVC
Duration : 2mn 31s
Bit rate : 11.5 Mbps
Width : 1 920 pixels
Height : 1 080 pixels
Display aspect ratio : 16:9
Frame rate mode : Constant
Frame rate : 24.000 fps
Color space : YUV
Chroma subsampling : 4:2:0
Bit depth : 8 bits
Scan type : Progressive
Bits/(Pixel*Frame) : 0.231
Stream size : 208 MiB (93%)
Writing library : x264 core 138 r2358 9e941d1
Encoding settings : cabac=1 / ref=4 / deblock=1:-3:-3 / analyse=0x3:0x133 / me=umh / subme=10 / psy=1 / psy_rd=1.00:0.00 / mixed_ref=1 / me_range=32 / chroma_me=1 / trellis=2 / 8x8dct=1 / cqm=0 / deadzone=21,11 / fast_pskip=1 / chroma_qp_offset=-2 / threads=12 / lookahead_threads=3 / sliced_threads=0 / nr=0 / decimate=1 / interlaced=0 / bluray_compat=0 / constrained_intra=0 / bframes=11 / b_pyramid=2 / b_adapt=2 / b_bias=0 / direct=3 / weightb=1 / open_gop=0 / weightp=2 / keyint=250 / keyint_min=24 / scenecut=40 / intra_refresh=0 / rc_lookahead=60 / rc=crf / mbtree=1 / crf=18.0 / qcomp=0.70 / qpmin=0 / qpmax=69 / qpstep=4 / vbv_maxrate=40000 / vbv_bufsize=30000 / crf_max=0.0 / nal_hrd=none / frame-packing=4 / ip_ratio=1.40 / aq=1:0.70
Default : Yes
Forced : No
Audio
ID : 2
Format : AC-3
Format/Info : Audio Coding 3
Mode extension : CM (complete main)
Format settings, Endianness : Big
Codec ID : A_AC3
Duration : 2mn 31s
Bit rate mode : Constant
Bit rate : 640 Kbps
Channel(s) : 6 channels
Channel positions : Front: L C R, Side: L R, LFE
Sampling rate : 48.0 KHz
Bit depth : 16 bits
Compression mode : Lossy
Stream size : 11.6 MiB (5%)
Title : Дубляж - DCP
Language : Russian
Default : Yes
Forced : No

Скриншоты

Для оценки 3Д - Анимированные скрины





Знаете ли вы, что...

  • Ондра Зелари рассматривался на роль в этом фильме.
  • Джозеф Гордон-Левитт рассматривался на роль в этом фильме.
  • Изначально на главную женскую роль претендовала Натали Портман, но позднее она выбыла из проекта. Так же перед Милой Кунис на эту роль пробовалась Руни Мара.
  • Первый фильм Энди и Ланы Вачовски в 3D-формате.
  • Во время съемок съемочная группа собрала установку из шести камер (Panocam), которую разместили на вертолете. Охватываемый установкой угол составил почти 180 градусов, это позволило на стадии пост-продакшна объединить перекрывающиеся кадры и создать ощущение, что камера движется независимо от фактического пути вертолета.
Other forum [Profile] [PM]
Display posts from previous:    
Reply to topic

The time now is: Today 08:28

All times are GMT + 3 Hours



You cannot post new topics in this forum
You cannot reply to topics in this forum
You cannot edit your posts in this forum
You cannot delete your posts in this forum
You cannot vote in polls in this forum
You cannot attach files in this forum
You cannot download files in this forum