Today is a free download without charge Download

Весёлые ребята - Музыкальный глобус (2008) [APE|Lossless]<Pop/retro>

Reply to topic
 
Author
Message

sashau ®

Gender:

Longevity: 7 years 11 months

Posts: 3497

Торрент-статистика

Post 12-Dec-2014 19:54

[Quote]

Весёлые ребята - Музыкальный глобус - Год: 2008
Жанр: Pop/retro
Продолжительность: 00:49:26
Тип рипа: image+.cue
Кодек: APE
Битрейт: Lossless
Треклист:
01. Уходило лето
02. Белладонна
03. Люба-Любовь
04. Никогда не поверю
05. Школьная пора
06. Нет, я не жду
07. Что ты хочешь мне сказать
08. В последний раз
09. Песня деревенского почтальона
10. Анжелина
11. Облади-облада
12. На перекрёстке
13. Мексико

Дополнительная информация&#58;

«Музыкальный глобус» пользовался широкой популярностью (пластинка вышла около 30 лет назад и была продана тиражом почти 11 миллионов экземпляров).
Диск сенсационный – наряду с песнями, которые впервые издаются на CD, в альбом включены композиции, ранее не издававшиеся. Диск представляет собой сборник самых известных песен того времени, многие из которых и сейчас звучат на радио и телевидении. Эти песни были во всех хит-парадах печатных изданий и радиостанций, а ансамбль «Веселые ребята» под руководством Павла Слободкина и сегодня остается одним из наиболее популярных и любимых.

Отчёт ЕАС&#58;

Код:
Exact Audio Copy V0.99 prebeta 4 from 23. January 2008
Отчёт EAC об извлечении, выполненном 20. февраля 2009, 21:09
Весёлые Ребята / Музыкальный Глобус
Дисковод: PLEXTOR DVDR PX-820A Adapter: 0 ID: 0
Режим чтения : Достоверность
Использование точного потока : Да
Отключение кэша аудио : Да
Использование указателей C2 : Нет
Коррекция смещения при чтении : 48
Способность читать области Lead-in и Lead-out : Нет
Заполнение пропущенных сэмплов тишиной : Да
Удаление блоков с тишиной в начале и конце : Нет
При вычислениях CRC использовались нулевые сэмплы : Да
Интерфейс : Установленный внешний ASPI-интерфейс
Выходной формат : Внутренние WAV-операции
Формат сэмплов : 44.100 Гц; 16 бит; стерео
TOC извлечённого CD
Трек | Старт | Длительность | Начальный сектор | Конечный сектор
---------------------------------------------------------------------
1 | 0:00.00 | 2:54.33 | 0 | 13082
2 | 2:54.33 | 5:59.02 | 13083 | 40009
3 | 8:53.35 | 3:35.60 | 40010 | 56194
4 | 12:29.20 | 4:42.23 | 56195 | 77367
5 | 17:11.43 | 3:34.49 | 77368 | 93466
6 | 20:46.17 | 3:13.38 | 93467 | 107979
7 | 23:59.55 | 3:53.45 | 107980 | 125499
8 | 27:53.25 | 3:10.16 | 125500 | 139765
9 | 31:03.41 | 3:01.61 | 139766 | 153401
10 | 34:05.27 | 3:00.00 | 153402 | 166901
11 | 37:05.27 | 2:43.20 | 166902 | 179146
12 | 39:48.47 | 3:04.05 | 179147 | 192951
13 | 42:52.52 | 6:33.33 | 192952 | 222459
Характеристики диапазона извлечения и сообщения об ошибках
Выбранный диапазон
Имя файла C:\Extract_temp\Весёлые Ребята - Музыкальный Глобус_new\Весёлые Ребята - Музыкальный Глобус.wav
Пиковый уровень 100.0 %
Качество диапазона 99.9 %
CRC теста 658D19EA
CRC копии 658D19EA
Копирование... OK
Ошибок не произошло
Конец отчёта

Отчёт auCDtect Task manager&#58;

Код:
-----------------------
DON'T MODIFY THIS FILE
-----------------------
PERFORMER: auCDtect Task Manager, ver. 1.6.0 RC1 build 1.6.0.1
Copyright (c) 2008-2010 y-soft. All rights reserved
http://y-soft.org
ANALYZER: auCDtect: CD records authenticity detector, version 0.8.2
Copyright (c) 2004 Oleg Berngardt. All rights reserved.
Copyright (c) 2004 Alexander Djourik. All rights reserved.
FILE: Весёлые Ребята - Музыкальный Глобус.ape
  Size: 344369456 Hash: 1D6D36AE4E358380DE72B3B866894D51 Accuracy: -m0
  Conclusion: CDDA 100%
  Signature: CE83541C2B0BEF54C2C03041E2DFB2A79355EF13
Other forum [Profile] [PM]
Display posts from previous:    
Reply to topic

The time now is: Today 14:29

All times are GMT + 3 Hours



You cannot post new topics in this forum
You cannot reply to topics in this forum
You cannot edit your posts in this forum
You cannot delete your posts in this forum
You cannot vote in polls in this forum
You cannot attach files in this forum
You cannot download files in this forum