Today is a free download without charge Download

ВИА "Самоцветы" - У нас, молодых - Песни Вячеслава Добрынина (2010) [FLAC|Lossless]<Pop/Retro>

Reply to topic
 
Author
Message

sashau ®

Gender:

Longevity: 8 years

Posts: 3497

Торрент-статистика

Post 12-Dec-2014 19:53

[Quote]

ВИА "Самоцветы" - У нас, молодых - Песни Вячеслава Добрынина - Год: 2010
Жанр: Pop/Retro
Продолжительность: 00:45:30
Издатель (лейбл): Bomba Music
Номер по каталогу: BoMB 033-645
Страна: СССР
Тип рипа: image+.cue
Кодек: FLAC
Битрейт: Lossless
Треклист:
01. У нас, молодых (01:57)
02. Все, что в жизни есть у меня (04:18)
03. Будьте счастливы (02:57)
04. Как мы любили (04:40)
05. Чужая свадьба (02:55)
06. Если будем мы вдвоем (03:29)
07. Первый день (03:23)
08. Не цветы твои люблю (03:20)
09. На земле живет любовь (02:29)
10. Ох, эти танцы (02:31)
11. Просто не верится (03:39)
12. Раз и навсегда (02:21)
13. Белый снег (04:23)
14. Комсомол - моя судьба (03:01)

Отчёт ЕАС&#58;

Код:
Exact Audio Copy V1.0 beta 3 from 29. August 2011
EAC extraction logfile from 22. May 2014, 22:42
ВИА Самоцветы / У нас, молодых
Used drive  : TEAC    DV-W524GSB   Adapter: 2  ID: 1
Read mode               : Secure
Utilize accurate stream : Yes
Defeat audio cache      : Yes
Make use of C2 pointers : No
Read offset correction                      : 6
Overread into Lead-In and Lead-Out          : No
Fill up missing offset samples with silence : Yes
Delete leading and trailing silent blocks   : No
Null samples used in CRC calculations       : Yes
Used interface                              : Native Win32 interface for Win NT & 2000
Used output format              : User Defined Encoder
Selected bitrate                : 320 kBit/s
Quality                         : High
Add ID3 tag                     : No
Command line compressor         : C:\Program Files\FLAC\flac.exe
Additional command line options : -V -8 -T "Date=%year%" -T "Genre=%genre%" %source%
TOC of the extracted CD
     Track |   Start  |  Length  | Start sector | End sector
    ---------------------------------------------------------
        1  |  0:00.00 |  1:57.52 |         0    |     8826
        2  |  1:57.52 |  4:18.54 |      8827    |    28230
        3  |  6:16.31 |  2:57.32 |     28231    |    41537
        4  |  9:13.63 |  4:40.12 |     41538    |    62549
        5  | 13:54.00 |  2:55.39 |     62550    |    75713
        6  | 16:49.39 |  3:29.47 |     75714    |    91435
        7  | 20:19.11 |  3:23.25 |     91436    |   106685
        8  | 23:42.36 |  3:20.25 |    106686    |   121710
        9  | 27:02.61 |  2:29.52 |    121711    |   132937
       10  | 29:32.38 |  2:31.39 |    132938    |   144301
       11  | 32:04.02 |  3:39.33 |    144302    |   160759
       12  | 35:43.35 |  2:21.28 |    160760    |   171362
       13  | 38:04.63 |  4:23.40 |    171363    |   191127
       14  | 42:28.28 |  3:01.64 |    191128    |   204766
Range status and errors
Selected range
     Filename C:\ВИА Самоцветы - У нас, молодых (2010)\ВИА Самоцветы - У нас, молодых.wav
     Peak level 98.8 %
     Extraction speed 5.5 X
     Range quality 100.0 %
     Test CRC 62B9C7D9
     Copy CRC 62B9C7D9
     Copy OK
No errors occurred
AccurateRip summary
Track  1  accurately ripped (confidence 1)  [AF75B463]  (AR v2)
Track  2  accurately ripped (confidence 1)  [9304BDFE]  (AR v2)
Track  3  accurately ripped (confidence 1)  [B3B15D7C]  (AR v2)
Track  4  accurately ripped (confidence 1)  [0C014725]  (AR v2)
Track  5  accurately ripped (confidence 1)  [1ACF01EA]  (AR v2)
Track  6  accurately ripped (confidence 1)  [1EE574E6]  (AR v2)
Track  7  accurately ripped (confidence 1)  [18284B04]  (AR v2)
Track  8  accurately ripped (confidence 1)  [D37A9FAF]  (AR v2)
Track  9  accurately ripped (confidence 1)  [C225B9D7]  (AR v2)
Track 10  accurately ripped (confidence 1)  [D83BA322]  (AR v2)
Track 11  accurately ripped (confidence 1)  [12B1700A]  (AR v2)
Track 12  accurately ripped (confidence 1)  [F0DBE647]  (AR v2)
Track 13  accurately ripped (confidence 1)  [DB0D953D]  (AR v2)
Track 14  accurately ripped (confidence 1)  [CFABF6E5]  (AR v2)
All tracks accurately ripped
End of status report
==== Log checksum 1B730930B353E7F173C4214B9872C74C94D1F59F89A36182B2AFCD47166BC60A ====

Отчёт auCDtect Task manager&#58;

Код:
-----------------------
DON'T MODIFY THIS FILE
-----------------------
PERFORMER: auCDtect Task Manager, ver. 1.6.0 RC1 build 1.6.0.1
Copyright (c) 2008-2010 y-soft. All rights reserved
http://y-soft.org
ANALYZER: auCDtect: CD records authenticity detector, version 0.8.2
Copyright (c) 2004 Oleg Berngardt. All rights reserved.
Copyright (c) 2004 Alexander Djourik. All rights reserved.
FILE: ВИА Самоцветы - У нас, молодых.flac
  Size: 336085204 Hash: 5CEC6F0672A0164C4D16FAFF172465EB Accuracy: -m0
  Conclusion: CDDA 100%
  Signature: 085BD0F7CEBE857A07548743D74A32ED5D1383FF
Other forum [Profile] [PM]
Display posts from previous:    
Reply to topic

The time now is: Today 08:58

All times are GMT + 3 Hours



You cannot post new topics in this forum
You cannot reply to topics in this forum
You cannot edit your posts in this forum
You cannot delete your posts in this forum
You cannot vote in polls in this forum
You cannot attach files in this forum
You cannot download files in this forum