Today is a free download without charge Download

Футажи - Camera REC [MOV]

Reply to topic
 
Author
Message

Omen ®

Longevity: 7 years 1 month

Posts: 181090

Торрент-статистика

Post 25-Nov-2014 11:41

[Quote]

Футажи - Camera REC [MOV]- Название: Camera REC
Официальный сайт:
Тип раздаваемого: Футажи
Параметры файлов: 1920x1080, 50fps, alpha, no sound. 60 sec
Формат: MOV
Описание:
Набор футажей с альфа каналом для монтажа. ( 6 шт )
Имитация записи на видео камеру с меню на экране.
В наборе:
- Запись на Hd камеру
- запись на VHS
- запись на dvd-handycam
- просто значок rec отдельно
- эквалайзер
- рамка
Скриншоты:
       

Доп. скриншоты:

   

MediaInfo:

Код:
C:Футажи - Камера\FULLHD.mov
General
Complete name : C:Футажи - Камера\FULLHD.mov
Format : MPEG-4
Format profile : QuickTime
Codec ID : qt
File size : 923 MiB
Duration : 1mn 10s
Overall bit rate mode : Variable
Overall bit rate : 111 Mbps
Encoded date : UTC 2013-11-01 12:22:06
Tagged date : UTC 2013-11-01 12:35:37
Writing library : Apple QuickTime
©TIM : 00:00:00:00
©TSC : 50
©TSZ : 1
Video #1
ID : 1
Format : RLE
Format/Info : Run-length encoding
Codec ID : rle
Duration : 1mn 10s
Bit rate mode : Variable
Bit rate : 111 Mbps
Width : 1 920 pixels
Height : 1 080 pixels
Display aspect ratio : 16:9
Frame rate mode : Constant
Frame rate : 50.000 fps
Bits/(Pixel*Frame) : 1.066
Stream size : 922 MiB (100%)
Title : Обработчик видео Apple / Обработчик псевдонимов Apple
Language : English
Encoded date : UTC 2013-11-01 12:22:06
Tagged date : UTC 2013-11-01 12:35:37
C:\Users\FULLHD_timeCOD.mov
General
Complete name : \FULLHD_timeCOD.mov
Format : MPEG-4
Format profile : QuickTime
Codec ID : qt
File size : 1 009 MiB
Duration : 1mn 10s
Overall bit rate mode : Variable
Overall bit rate : 121 Mbps
Encoded date : UTC 2013-11-01 13:22:46
Tagged date : UTC 2013-11-01 13:28:58
Writing library : Apple QuickTime
©TIM : 00:00:00:00
©TSC : 50
©TSZ : 1
Video #1
ID : 1
Format : RLE
Format/Info : Run-length encoding
Codec ID : rle
Duration : 1mn 10s
Bit rate mode : Variable
Bit rate : 121 Mbps
Width : 1 920 pixels
Height : 1 080 pixels
Display aspect ratio : 16:9
Frame rate mode : Constant
Frame rate : 50.000 fps
Bits/(Pixel*Frame) : 1.166
Stream size : 1 009 MiB (100%)
Title : Обработчик видео Apple / Обработчик псевдонимов Apple
Language : English
Encoded date : UTC 2013-11-01 13:22:46
Tagged date : UTC 2013-11-01 13:28:58
General
Complete name :HD_DVD.mov
Format : MPEG-4
Format profile : QuickTime
Codec ID : qt
File size : 2.27 GiB
Duration : 1mn 10s
Overall bit rate mode : Variable
Overall bit rate : 278 Mbps
Encoded date : UTC 2013-11-01 10:14:41
Tagged date : UTC 2013-11-01 10:21:38
Writing library : Apple QuickTime
©TIM : 00:00:00:00
©TSC : 50
©TSZ : 1
Video #1
ID : 1
Format : RLE
Format/Info : Run-length encoding
Codec ID : rle
Duration : 1mn 10s
Bit rate mode : Variable
Bit rate : 278 Mbps
Width : 1 920 pixels
Height : 1 080 pixels
Display aspect ratio : 16:9
Frame rate mode : Constant
Frame rate : 50.000 fps
Bits/(Pixel*Frame) : 2.682
Stream size : 2.27 GiB (100%)
Title : Обработчик видео Apple / Обработчик псевдонимов Apple
Language : English
Encoded date : UTC 2013-11-01 10:14:41
Tagged date : UTC 2013-11-01 10:21:38
General
Complete name :HD_ramka.mov
Format : MPEG-4
Format profile : QuickTime
Codec ID : qt
File size : 60.4 MiB
Duration : 10s 0ms
Overall bit rate mode : Constant
Overall bit rate : 50.7 Mbps
Encoded date : UTC 2013-10-31 20:25:51
Tagged date : UTC 2013-10-31 20:26:14
Writing library : Apple QuickTime
©TIM : 00:00:00:00
©TSC : 50
©TSZ : 1
Video #1
ID : 1
Format : RLE
Format/Info : Run-length encoding
Codec ID : rle
Duration : 10s 0ms
Bit rate mode : Constant
Bit rate : 50.7 Mbps
Width : 1 920 pixels
Height : 1 080 pixels
Display aspect ratio : 16:9
Frame rate mode : Constant
Frame rate : 50.000 fps
Bits/(Pixel*Frame) : 0.489
Stream size : 60.4 MiB (100%)
Title : Обработчик видео Apple / Обработчик псевдонимов Apple
Language : English
Encoded date : UTC 2013-10-31 20:25:51
Tagged date : UTC 2013-10-31 20:26:14
General
Complete name :TIMECODE.mov
Format : MPEG-4
Format profile : QuickTime
Codec ID : qt
File size : 414 MiB
Duration : 1mn 10s
Overall bit rate mode : Variable
Overall bit rate : 49.6 Mbps
Encoded date : UTC 2013-11-01 13:43:40
Tagged date : UTC 2013-11-01 13:46:18
Writing library : Apple QuickTime
©TIM : 00:00:00:00
©TSC : 50
©TSZ : 1
Video #1
ID : 1
Format : RLE
Format/Info : Run-length encoding
Codec ID : rle
Duration : 1mn 10s
Bit rate mode : Variable
Bit rate : 49.6 Mbps
Width : 1 920 pixels
Height : 1 080 pixels
Display aspect ratio : 16:9
Frame rate mode : Constant
Frame rate : 50.000 fps
Bits/(Pixel*Frame) : 0.478
Stream size : 414 MiB (100%)
Title : Обработчик видео Apple / Обработчик псевдонимов Apple
Language : English
Encoded date : UTC 2013-11-01 13:43:40
Tagged date : UTC 2013-11-01 13:46:18
General
Complete name : VHS.mov
Format : MPEG-4
Format profile : QuickTime
Codec ID : qt
File size : 572 MiB
Duration : 1mn 1s
Overall bit rate mode : Variable
Overall bit rate : 78.6 Mbps
Encoded date : UTC 2013-10-31 19:52:58
Tagged date : UTC 2013-10-31 20:05:35
Writing library : Apple QuickTime
©TIM : 00:00:00:00
©TSC : 50
©TSZ : 1
Video #1
ID : 1
Format : RLE
Format/Info : Run-length encoding
Codec ID : rle
Duration : 1mn 1s
Bit rate mode : Variable
Bit rate : 78.6 Mbps
Width : 1 920 pixels
Height : 1 080 pixels
Display aspect ratio : 16:9
Frame rate mode : Constant
Frame rate : 50.000 fps
Bits/(Pixel*Frame) : 0.758
Stream size : 572 MiB (100%)
Title : Обработчик видео Apple / Обработчик псевдонимов Apple
Language : English
Encoded date : UTC 2013-10-31 19:52:58
Tagged date : UTC 2013-10-31 19:55:27

Превью:

Other forum [Profile] [PM]
Display posts from previous:    
Reply to topic

The time now is: Today 14:31

All times are GMT + 3 Hours



You cannot post new topics in this forum
You cannot reply to topics in this forum
You cannot edit your posts in this forum
You cannot delete your posts in this forum
You cannot vote in polls in this forum
You cannot attach files in this forum
You cannot download files in this forum