Today is a free download without charge Download

(Thrash Metal) [CD] Catalepsy - Fruitcakes We Have Known - 1993, FLAC (image+.cue), lossless

Reply to topic
 
Author
Message

Omen ®

Longevity: 8 years 2 months

Posts: 181087

Торрент-статистика

Post 07-Sep-2014 17:54

[Quote]

Catalepsy / Fruitcakes We Have Known
Жанр: Thrash Metal
Носитель: CD
Год издания: 1993
Издатель (лейбл): Electrip Records
Номер по каталогу: EL 107CD
Страна: Belgium
Аудиокодек: FLAC (*.flac)
Тип рипа: image+.cue
Битрейт аудио: lossless
Продолжительность: 00:34:02
Источник (релизер): мой CD
Наличие сканов в содержимом раздачи: да
Треклист:
01. Brick By Brick 02:51
02. Hot Dog & Beercanhill 03:17
03. Civilised Genocide 03:14
04. House Of Dispair 05:52
05. Here Comes King Gossip 04:32
06. Miss Brainless 03:22
07. Tortured Minds 02:42
08. Clowns 04:22
09. Suicide Letters 03:46

Лог создания рипа

Exact Audio Copy V0.99 prebeta 5 from 4. May 2009
Отчёт EAC об извлечении, выполненном 23. ноября 2012, 11:10
Catalepsy / Fruitcakes We Have Known
Дисковод: TSSTcorpCDDVDW SH-S202N Adapter: 0 ID: 1
Режим чтения : ДостоверностьИспользование точного потока : ДаОтключение кэша аудио : ДаИспользование указателей C2 : Нет
Коррекция смещения при чтении : 6Способность читать области Lead-in и Lead-out : НетЗаполнение пропущенных сэмплов тишиной : ДаУдаление блоков с тишиной в начале и конце : НетПри вычислениях CRC использовались нулевые сэмплы : ДаИнтерфейс : Встроенный Win32-интерфейс для Win NT/2000
Выходной формат : Пользовательский кодировщикВыбранный битрейт : 768 kBit/sКачество : ВысокийДобавление ID3-тэга : НетУтилита сжатия : C:\Program Files\Exact Audio Copy\FLAC\FLAC.EXEДополнительные параметры : -6 -V -T "ARTIST=%a" -T "TITLE=%t" -T "ALBUM=%g" -T "DATE=%y" -T "TRACKNUMBER=%n" -T "GENRE=%m" -T "COMMENT=%e" %s -o %d
TOC извлечённого CD
Трек | Старт | Длительность | Начальный сектор | Конечный сектор --------------------------------------------------------------------- 1 | 0:00.33 | 2:52.62 | 33 | 12994 2 | 2:53.20 | 3:19.40 | 12995 | 27959 3 | 6:12.60 | 3:16.40 | 27960 | 42699 4 | 9:29.25 | 5:54.38 | 42700 | 69287 5 | 15:23.63 | 4:34.22 | 69288 | 89859 6 | 19:58.10 | 3:24.48 | 89860 | 105207 7 | 23:22.58 | 2:44.35 | 105208 | 117542 8 | 26:07.18 | 4:24.10 | 117543 | 137352 9 | 30:31.28 | 3:46.62 | 137353 | 154364
Характеристики диапазона извлечения и сообщения об ошибках
Выбранный диапазон
Имя файла E:\Лоси\C\Catalepsy - Fruitcakes we Have Known.wav
Пиковый уровень 98.8 % Качество диапазона 100.0 % CRC копии C5B01098 Копирование... OK
Ошибок не произошло
AccurateRip: сводка
Трек 1 нет в базе данныхТрек 2 нет в базе данныхТрек 3 нет в базе данныхТрек 4 нет в базе данныхТрек 5 нет в базе данныхТрек 6 нет в базе данныхТрек 7 нет в базе данныхТрек 8 нет в базе данныхТрек 9 нет в базе данных
Ни одного трека нет в базе AccurateRip
Конец отчёта

Содержание индексной карты (.CUE)

REM GENRE "Thrash Metal"REM DATE 1993REM DISCID 6A080A09REM COMMENT "ExactAudioCopy v0.99pb5"PERFORMER "Catalepsy"TITLE "Fruitcakes We Have Known"FILE "Catalepsy - Fruitcakes We Have Known.flac" WAVE TRACK 01 AUDIO TITLE "Brick By Brick" PERFORMER "Catalepsy" INDEX 00 00:00:00 INDEX 01 00:00:33 TRACK 02 AUDIO TITLE "hot Dog And Beercanhill" PERFORMER "Catalepsy" INDEX 00 02:51:53 INDEX 01 02:53:20 TRACK 03 AUDIO TITLE "Civilised Genocide" PERFORMER "Catalepsy" INDEX 00 06:10:60 INDEX 01 06:12:60 TRACK 04 AUDIO TITLE "House Of Dispair" PERFORMER "Catalepsy" INDEX 00 09:26:63 INDEX 01 09:29:25 TRACK 05 AUDIO TITLE "Here Comes King Gossip" PERFORMER "Catalepsy" INDEX 00 15:21:50 INDEX 01 15:23:63 TRACK 06 AUDIO TITLE "Miss Brainless" PERFORMER "Catalepsy" INDEX 00 19:56:35 INDEX 01 19:58:10 TRACK 07 AUDIO TITLE "Tortured Minds" PERFORMER "Catalepsy" INDEX 00 23:20:73 INDEX 01 23:22:58 TRACK 08 AUDIO TITLE "Clowns" PERFORMER "Catalepsy" INDEX 00 26:05:20 INDEX 01 26:07:18 TRACK 09 AUDIO TITLE "Suicide Letters" PERFORMER "Catalepsy" INDEX 00 30:30:03 INDEX 01 30:31:28

Об исполнителе (группе)

http://www.metal-archives.com/bands/Catalepsy/24202

Состав

Wannes De Coninck - Rhythm Guitar, Vocals
Manuel Rios - Lead and Rhythm Guitar (bass on "Fruitcakes We Have Known")
Christian Z. - Drums
Steve - Bass
Other forum [Profile] [PM]
Similar theme
Forum Topic Author Torrent Replies Last Post
./templates/default/images/folder_dl.gif Metal (Thrash Metal) Kat - Metal And Hell - 1985 (2003 Re-Issue), FLAC (image+.cue), lossless Omen
1 | 0

0 | 1206

3

2013-10-08 00:55
Omen Latest
./templates/default/images/folder_dl.gif Metal (Thrash Metal) [CD] Faith Or Fear - Instruments Of Death - 2009, FLAC (image+.cue), lossless Omen
1 | 0

0 | 2450

11

2014-05-17 11:01
Omen Latest
./templates/default/images/folder_dl.gif Metal (Thrash Metal) [CD] Catalepsy - Dragged Inside Out - 1994, FLAC (image+.cue), lossless Omen
1 | 0

0 | 444

0

2014-08-17 14:02
Omen Latest
./templates/default/images/folder_dl.gif Metal (Thrash Metal) [CD] Accu§er (Accuser) - Double Talk [Reissue 1997, Remastered] - 1991, FLA - 1991, FLAC (image + .cue), lossless Kaustikk
1 | 0

1 | 4249

0

2018-02-05 20:55
Kaustikk Latest
Display posts from previous:    
Reply to topic

The time now is: Today 02:16

All times are GMT + 3 Hours



You cannot post new topics in this forum
You cannot reply to topics in this forum
You cannot edit your posts in this forum
You cannot delete your posts in this forum
You cannot vote in polls in this forum
You cannot attach files in this forum
You cannot download files in this forum