Сегодня идет свободное скачивание без начисления Download

Специалист | Microsoft Excel 2013-2010. Уровень 4. Макросы на VBA (2013) [PCRec] [Rus, Eng]

Ответить на тему
 
Автор
Сообщение

Omen ®

Стаж: 5 лет 11 месяцев

Сообщений: 184329

Торрент-статистика

Пост 20-Июн-2014 22:26

[Цитировать]

Специалист
Microsoft Excel 2013-2010. Уровень 4.
Макросы на VBA
- Преподаватель: Андрей Николаевич Завьялов
Центр обучения: Специалист
Название: Microsoft Excel 2013-2010. Уровень 4. Макросы на VBA
Год: 2013
Жанр: Обучающие видео-уроки
Язык: Русский, Английский
Продолжительность: 15:06:23
Качество видео: PCRec
Видеокодек: MPEG-4
Битрейт видео: ~ 40 kbps
Размер кадра: 1024х768
Аудиокодек: AAC, 2 channels
Битрейт аудио: 64 kbps
Доп. материалы: Есть
Описание:
В новейшей версии Microsoft Office 2013 встроенный язык программирования Visual Basic for Applications (VBA) по-прежнему остается основным наиважнейшим средством автоматизации работы пользователей с офисными приложениями.
Наибольшее количество прикладных задач, требующих использования макросов, возникает при работе с электронными таблицами Excel. Опытные пользователи могут самостоятельно справиться с вопросами автоматизации Microsoft Excel 2013/2010, если освоят возможности программирования макросов на VBA.

О курсе

Курс рассчитан на специалистов, постоянно использующих Excel в повседневной профессиональной деятельности и желающих научиться разбирать программный код на VBA и самостоятельно программировать макросы, что позволит автоматически выполнять повторяющиеся рутинные действия, сэкономит время и повысит эффективность труда.
Основные команды языка VBA и базовые объекты Excel совместимы на уровне макросов с предыдущими версиями Excel, поэтому полученные на курсе знания и навыки программирования макросов можно будет с успехом применять как в Microsoft Excel 2013/2010, так и в более ранних версиях Microsoft Excel 2007/2003.
По окончании курса Вы будете уметь:
  • Использовать автоматическую запись макроса в Excel и исправлять недостатки автоматически генерируемого программного кода
  • Создавать проекты в редакторе VBA, редактировать, отлаживать и выполнять программный код
  • Программировать работу с переменными, условные переходы и циклы, диалоги для ввода значений и вывода сообщений
  • Программировать доступ и управление объектами Excel (таким, как рабочая книга, рабочие листы и диапазоны ячеек)
  • Создавать и применять пользовательские функции

MediaInfo:

Код:
Общее
Полное имя                               : С:\...\Специалист - Excel. Уровень 4\1_1.mp4
Формат                                   : MPEG-4
Профиль формата                          : Base Media / Version 2
Идентификатор кодека                     : mp42
Размер файла                             : 65,6 Мбайт
Продолжительность                        : 1 ч. 24 м.
Режим общего битрейта                    : Переменный
Общий поток                              : 108 Кбит/сек
Видео
Идентификатор                            : 1
Формат                                   : AVC
Формат/Информация                        : Advanced Video Codec
Профиль формата                          : [url=mailto:High@L3.1]High@L3.1[/url]
Параметр CABAC формата                   : Да
Параметр ReFrames формата                : 4 кадра
Идентификатор кодека                     : avc1
Идентификатор кодека/Информация          : Advanced Video Coding
Продолжительность                        : 1 ч. 24 м.
Битрейт                                  : 40,0 Кбит/сек
Ширина                                   : 1024 пикселя
Высота                                   : 768 пикселей
Соотношение сторон                       : 4:3
Режим частоты кадров                     : Переменный
Частота кадров                           : 15,000 кадров/сек
Минимальная частота кадров               : 15,000 кадров/сек
Максимальная частота кадров              : 15,003 кадров/сек
Цветовое пространство                    : YUV
Субдискретизация насыщенности            : 4:2:0
Битовая глубина                          : 8 бит
Тип развёртки                            : Прогрессивная
Бит/(Пиксели*Кадры)                      : 0.003
Размер потока                            : 24,2 Мбайт (37%)
Библиотека кодирования                   : x264 core 125 r2200 999b753
Настройки программы                      : cabac=1 / ref=3 / deblock=1:0:0
Язык                                         : English
Аудио
Идентификатор                            : 2
Формат                                   : AAC
Формат/Информация                        : Advanced Audio Codec
Профиль формата                          : LC
Идентификатор кодека                     : 40
Продолжительность                        : 1 ч. 24 м.
Вид битрейта                             : Переменный
Битрейт                                  : 64,0 Кбит/сек
Каналы                                   : 2 канала
Расположение каналов                     : Front: L R
Частота                                  : 44,1 КГц
Метод сжатия                             : С потерями
Размер потока                            : 38,7 Мбайт (59%)
Язык                                     : English
Скриншоты:
           
Материал для релиза предоставил titan_sport
Вне форума [Профиль] [ЛС]
Похожие темы
Форум Тема Автор Торрент Отв. Посл. сообщение
./templates/default/images/folder_dl.gif Обучающее видео Специалист | Linux (Ubuntu). Уровень 2. Программирование в Linux на C/C++ [Полный курс] [2011] PCRec Omen
0 | 1

0 | 2094

7

2013-06-05 22:26
Omen Последнее
./templates/default/images/folder_dl.gif Разное Майкл А. Ди Специо | Превосходные головоломки, развивающие критическое мышление (2004) [PDF] UndegraundMen
1 | 0

0 | 2323

18

2013-09-20 23:08
UndegraundMen Последнее
./templates/default/images/folder_dl.gif Обучающее видео Специалист | Основы экономики для руководителей, менеджеров и специалистов (2014) PCRec Omen
1 | 0

0 | 1962

45

2014-10-24 22:25
Omen Последнее
./templates/default/images/folder_dl.gif Обучающее видео Центр «Специалист» | Об IP-адресации по-простому (2014) PCRec Omen
1 | 0

0 | 1512

66

2015-03-03 19:29
Omen Последнее
./templates/default/images/folder_dl.gif Обучающее видео Специалист | Рудь И. | Администратор корпоративной почтовой системы Microsoft Exchange Server 2013/2016 (2016) PCRec Omen
1 | 0

0 | 1573

55

2016-03-09 18:45
Omen Последнее
./templates/default/images/folder_dl.gif Обучающее видео Специалист | СЕН3 (CHFI) Расследование хакерских инцидентов (2016) PCRec Omen
1 | 0

0 | 961

34

2016-10-27 01:01
Omen Последнее
./templates/default/images/folder_dl.gif Обучающее видео Специалист | HTML5 и CSS3 (Уровень 1,2,3) (2016) PCRec }{@R0N
1 | 0

0 | 456

20

2016-10-30 12:39
}{@R0N Последнее
./templates/default/images/folder_dl.gif Обучающее видео Специалист | СЕН2 (ECSA) Тестирование на проникновение хакера и анализ безопасности. (2016) PCRec Omen
1 | 0

0 | 1069

31

2016-12-03 01:00
Omen Последнее
./templates/default/images/folder_dl.gif Обучающее видео Специалист | Python. Часть 3. Веб-разработка на Python (2017) PCRec [H.264/1080p-LQ] moralis
1 | 0

0 | 2568

17

2017-10-07 22:23
moralis Последнее
Показать сообщения:    
Ответить на тему

Текущее время: Сегодня 01:07

Часовой пояс: GMT + 3



Вы не можете начинать темы
Вы не можете отвечать на сообщения
Вы не можете редактировать свои сообщения
Вы не можете удалять свои сообщения
Вы не можете голосовать в опросах
Вы не можете прикреплять файлы к сообщениям
Вы не можете скачивать файлы