Today is a free download without charge Download

(Trance) VA - Trance Nation (2CD) - 2013, FLAC (tracks), lossless

Reply to topic
 
Author
Message

sergej644 ®

Gender:

Longevity: 7 years 5 months

Posts: 636

Торрент-статистика

Post 28-May-2014 17:36

[Quote]

-VA - Trance Nation (2CD)- Страна: Забудь
Жанр: Trance
Год выпуска: 2013
Формат: FLAC (tracks)
Битрейт аудио: lossless
Продолжительность: 02:15:49
- -

CD 1 / 01:01:17


01. Yahel & Liya - I Dive (03:51)
02. Passenger 75 - Contact (04:24)
03. Kyau & Albert With Stoneface & Terminal - We Own The Night (04:21)
04. Lange - Our Brief Time In The Sun (05:33)
05. Cosmic Gate - All Around You (Alexander Popov Remix) feat. Myon & Shane 54 & Aruna (05:48)
06. Super8 & Tab - The Way You Want (03:56)
07. Rank 1 - Floorlifter (04:19)
08. Arty - Believe In Me (Instrumental Mix) (03:53)
09. Lange - Crossroads (Estiva Remix) feat. Stine Grove (04:54)
10. Andy Moor & Betsie Larkin - Love Again (Andrew Rayel Remix) (04:39)
11. Lange - Unfamiliar Truth (TN Edit) feat. Hysteria! (03:22)
12. Bobina & Betsie Larkin - No Substitute For You (Andy Duguid Remix) (04:16)
13. Tomas Heredia - Alchemist (05:03)
14. Lange - Destination Anywhere (06:39)
15. Rikkaz - The Great Migration (02:44)
16. Planet Perfecto Knights Vs Craig Connelly - Absolute Resurection (Lange Mashup) (04:19)
17. Lange - Follow Me (2013 Rework) feat. The Morrighan (05:25)

CD 2 / 01:14:32


01. Alexx Rave - Man Who'll Save The Earth (05:50)
02. Tangle & Matuesz - Omega (03:37)
03. Lele Troniq - Sirio feat. Simona Barbieri (03:25)
04. Ilan Bluestone & Jerome Isma-Ae - Under My Skin (03:36)
05. Mark Eteson - Aventus (03:22)
06. Stephen Kirkwood - Mars One (03:36)
07. Alex Larichev - Leave Me Behind feat. Invi Tado (03:55)
08. Heatbeat - #BOOM (04:33)
09. Ferry Corsten - F The Bullshit (03:50)
10. Cosmic Gate - Storm Chaser (Extended Mix) (05:48)
11. Rex Mundi - Seek & Destroy (04:38)
12. Lange Presents LNG - Harmony Will Kick You In The Ass (Chris Schweizer Remix) (03:22)
13. Daniel Kandi & Jack Rowan - Arigatou (04:34)
14. Shogun Vs Ana Criado & Ronski Speed - Supernova Afterglow (SaF Mashup - Lange Edit) (05:39)
15. Orjan Nilsen - Violetta (04:06)
16. Stuart McLellan - Downtime (05:01)
17. Lange - Hold That Sucker Down (05:22)
- -:

лог создания рипа

CD 1

Код:
Exact Audio Copy V1.0 beta 3 from 29. August 2011
EAC extraction logfile from 11. April 2014, 21:05
Lange / Trance  Nation
Used drive  : TEAC    DV-516E   Adapter: 0  ID: 1
Read mode               : Secure
Utilize accurate stream : Yes
Defeat audio cache      : Yes
Make use of C2 pointers : No
Read offset correction                      : 594
Overread into Lead-In and Lead-Out          : No
Fill up missing offset samples with silence : Yes
Delete leading and trailing silent blocks   : No
Null samples used in CRC calculations       : Yes
Used interface                              : Native Win32 interface for Win NT & 2000
Gap handling                                : Appended to previous track
Used output format              : User Defined Encoder
Selected bitrate                : 896 kBit/s
Quality                         : High
Add ID3 tag                     : No
Command line compressor         : C:\Programme\Exact Audio Copy\Flac\flac.exe
Additional command line options : -8 -V -T "ARTIST=%artist%" -T "TITLE=%title%" -T "ALBUM=%albumtitle%" -T "DATE=%year%" -T "TRACKNUMBER=%tracknr%" -T "GENRE=%genre%" -T "PERFORMER=%albuminterpret%" -T "COMPOSER=%composer%"  -T "ALBUMARTIST=%albumartist%" -T "DISCNUMBER=%cdnumber%" -T "TOTALDISCS=%totalcds%" -T "TOTALTRACKS=%numtracks%" -T "COMMENT=%comment%" %source% -o %dest%
TOC of the extracted CD
     Track |   Start  |  Length  | Start sector | End sector
    ---------------------------------------------------------
        1  |  0:00.00 |  3:51.65 |         0    |    17389
        2  |  3:51.65 |  4:24.46 |     17390    |    37235
        3  |  8:16.36 |  4:21.06 |     37236    |    56816
        4  | 12:37.42 |  5:33.55 |     56817    |    81846
        5  | 18:11.22 |  5:48.10 |     81847    |   107956
        6  | 23:59.32 |  3:56.36 |    107957    |   125692
        7  | 27:55.68 |  4:19.20 |    125693    |   145137
        8  | 32:15.13 |  3:53.39 |    145138    |   162651
        9  | 36:08.52 |  4:54.13 |    162652    |   184714
       10  | 41:02.65 |  4:39.10 |    184715    |   205649
       11  | 45:42.00 |  3:22.54 |    205650    |   220853
       12  | 49:04.54 |  4:16.46 |    220854    |   240099
       13  | 53:21.25 |  5:03.14 |    240100    |   262838
       14  | 58:24.39 |  6:39.18 |    262839    |   292781
       15  | 65:03.57 |  2:44.44 |    292782    |   305125
       16  | 67:48.26 |  4:19.13 |    305126    |   324563
       17  | 72:07.39 |  5:25.18 |    324564    |   348956
Track  1
     Filename C:\Netzordner\2013 - Trance Nation\01-Yahel & Liya - I Dive.wav
     Pre-gap length  0:00:02.00
     Peak level 98.8 %
     Extraction speed 3.5 X
     Track quality 100.0 %
     Test CRC 9CB218E5
     Copy CRC 9CB218E5
     Accurately ripped (confidence 1)  [5E6DBD07]  (AR v2)
     Copy OK
Track  2
     Filename C:\Netzordner\2013 - Trance Nation\02-Passenger 75 - Contact.wav
     Peak level 98.8 %
     Extraction speed 1.2 X
     Track quality 99.9 %
     Test CRC 8EEC179D
     Copy CRC 8EEC179D
     Accurately ripped (confidence 1)  [1B5DC819]  (AR v2)
     Copy OK
Track  3
     Filename C:\Netzordner\2013 - Trance Nation\03-Kyau & Albert With Stoneface & Terminal - We Own The Night.wav
     Peak level 98.8 %
     Extraction speed 6.1 X
     Track quality 100.0 %
     Test CRC 2C48A98E
     Copy CRC 2C48A98E
     Accurately ripped (confidence 1)  [09E4D1D6]  (AR v2)
     Copy OK
Track  4
     Filename C:\Netzordner\2013 - Trance Nation\04-Lange - Our Brief Time In The Sun.wav
     Peak level 98.8 %
     Extraction speed 6.8 X
     Track quality 100.0 %
     Test CRC C6682F56
     Copy CRC C6682F56
     Accurately ripped (confidence 1)  [191F67E1]  (AR v2)
     Copy OK
Track  5
     Filename C:\Netzordner\2013 - Trance Nation\05-Cosmic Gate - All Around You (Alexander Popov Remix) feat. Myon & Shane 54 & Aruna.wav
     Peak level 98.8 %
     Extraction speed 7.3 X
     Track quality 100.0 %
     Test CRC D6C83A86
     Copy CRC D6C83A86
     Accurately ripped (confidence 1)  [EACE5555]  (AR v2)
     Copy OK
Track  6
     Filename C:\Netzordner\2013 - Trance Nation\06-Super8 & Tab - The Way You Want.wav
     Peak level 98.8 %
     Extraction speed 7.4 X
     Track quality 100.0 %
     Test CRC D36C8F80
     Copy CRC D36C8F80
     Accurately ripped (confidence 1)  [24B69A4C]  (AR v2)
     Copy OK
Track  7
     Filename C:\Netzordner\2013 - Trance Nation\07-Rank 1 - Floorlifter.wav
     Peak level 98.8 %
     Extraction speed 7.1 X
     Track quality 99.9 %
     Test CRC 3CB4634C
     Copy CRC 3CB4634C
     Accurately ripped (confidence 1)  [24F63DAF]  (AR v2)
     Copy OK
Track  8
     Filename C:\Netzordner\2013 - Trance Nation\08-Arty - Believe In Me (Instrumental Mix).wav
     Peak level 98.8 %
     Extraction speed 8.0 X
     Track quality 100.0 %
     Test CRC 1C0F9FC5
     Copy CRC 1C0F9FC5
     Accurately ripped (confidence 1)  [A9449D55]  (AR v2)
     Copy OK
Track  9
     Filename C:\Netzordner\2013 - Trance Nation\09-Lange - Crossroads (Estiva Remix) feat. Stine Grove.wav
     Peak level 98.8 %
     Extraction speed 8.6 X
     Track quality 100.0 %
     Test CRC 1D72473E
     Copy CRC 1D72473E
     Accurately ripped (confidence 1)  [68EE11F9]  (AR v2)
     Copy OK
Track 10
     Filename C:\Netzordner\2013 - Trance Nation\10-Andy Moor & Betsie Larkin - Love Again (Andrew Rayel Remix).wav
     Peak level 98.8 %
     Extraction speed 8.9 X
     Track quality 100.0 %
     Test CRC 4F11A906
     Copy CRC 4F11A906
     Accurately ripped (confidence 1)  [07A98CF5]  (AR v2)
     Copy OK
Track 11
     Filename C:\Netzordner\2013 - Trance Nation\11-Lange - Unfamiliar Truth (TN Edit) feat. Hysteria!.wav
     Peak level 98.8 %
     Extraction speed 8.7 X
     Track quality 100.0 %
     Test CRC 9D6A3D96
     Copy CRC 9D6A3D96
     Accurately ripped (confidence 1)  [26DC2D4C]  (AR v2)
     Copy OK
Track 12
     Filename C:\Netzordner\2013 - Trance Nation\12-Bobina & Betsie Larkin - No Substitute For You (Andy Duguid Remix).wav
     Peak level 98.8 %
     Extraction speed 8.3 X
     Track quality 99.9 %
     Test CRC F50BA814
     Copy CRC F50BA814
     Accurately ripped (confidence 1)  [3CA8442D]  (AR v2)
     Copy OK
Track 13
     Filename C:\Netzordner\2013 - Trance Nation\13-Tomas Heredia - Alchemist.wav
     Peak level 98.8 %
     Extraction speed 9.6 X
     Track quality 100.0 %
     Test CRC D73B3229
     Copy CRC D73B3229
     Accurately ripped (confidence 1)  [074020BA]  (AR v2)
     Copy OK
Track 14
     Filename C:\Netzordner\2013 - Trance Nation\14-Lange - Destination Anywhere.wav
     Peak level 98.8 %
     Extraction speed 10.3 X
     Track quality 100.0 %
     Test CRC D10FE265
     Copy CRC D10FE265
     Accurately ripped (confidence 1)  [BDC4A440]  (AR v2)
     Copy OK
Track 15
     Filename C:\Netzordner\2013 - Trance Nation\15-Rikkaz - The Great Migration.wav
     Peak level 98.8 %
     Extraction speed 8.9 X
     Track quality 100.0 %
     Test CRC 67B8DD24
     Copy CRC 67B8DD24
     Accurately ripped (confidence 1)  [4486E474]  (AR v2)
     Copy OK
Track 16
     Filename C:\Netzordner\2013 - Trance Nation\16-Planet Perfecto Knights Vs Craig Connelly - Absolute Resurection (Lange Mashup).wav
     Peak level 98.8 %
     Extraction speed 10.3 X
     Track quality 100.0 %
     Test CRC D6A9120F
     Copy CRC D6A9120F
     Accurately ripped (confidence 1)  [A82D99F7]  (AR v2)
     Copy OK
Track 17
     Filename C:\Netzordner\2013 - Trance Nation\17-Lange - Follow Me (2013 Rework) feat. The Morrighan.wav
     Peak level 98.8 %
     Extraction speed 10.8 X
     Track quality 100.0 %
     Test CRC 7836AE35
     Copy CRC 7836AE35
     Accurately ripped (confidence 1)  [BFAE8AE8]  (AR v2)
     Copy OK
All tracks accurately ripped
No errors occurred
End of status report

CD 2

Код:
Exact Audio Copy V1.0 beta 3 from 29. August 2011
EAC extraction logfile from 11. April 2014, 21:38
Lange / Trance Nation
Used drive  : TEAC    DV-516E   Adapter: 0  ID: 1
Read mode               : Secure
Utilize accurate stream : Yes
Defeat audio cache      : Yes
Make use of C2 pointers : No
Read offset correction                      : 594
Overread into Lead-In and Lead-Out          : No
Fill up missing offset samples with silence : Yes
Delete leading and trailing silent blocks   : No
Null samples used in CRC calculations       : Yes
Used interface                              : Native Win32 interface for Win NT & 2000
Gap handling                                : Appended to previous track
Used output format              : User Defined Encoder
Selected bitrate                : 896 kBit/s
Quality                         : High
Add ID3 tag                     : No
Command line compressor         : C:\Programme\Exact Audio Copy\Flac\flac.exe
Additional command line options : -8 -V -T "ARTIST=%artist%" -T "TITLE=%title%" -T "ALBUM=%albumtitle%" -T "DATE=%year%" -T "TRACKNUMBER=%tracknr%" -T "GENRE=%genre%" -T "PERFORMER=%albuminterpret%" -T "COMPOSER=%composer%"  -T "ALBUMARTIST=%albumartist%" -T "DISCNUMBER=%cdnumber%" -T "TOTALDISCS=%totalcds%" -T "TOTALTRACKS=%numtracks%" -T "COMMENT=%comment%" %source% -o %dest%
TOC of the extracted CD
     Track |   Start  |  Length  | Start sector | End sector
    ---------------------------------------------------------
        1  |  0:00.00 |  5:50.28 |         0    |    26277
        2  |  5:50.28 |  3:37.01 |     26278    |    42553
        3  |  9:27.29 |  3:25.72 |     42554    |    58000
        4  | 12:53.26 |  3:36.60 |     58001    |    74260
        5  | 16:30.11 |  3:22.33 |     74261    |    89443
        6  | 19:52.44 |  3:36.35 |     89444    |   105678
        7  | 23:29.04 |  3:55.27 |    105679    |   123330
        8  | 27:24.31 |  4:33.47 |    123331    |   143852
        9  | 31:58.03 |  3:50.73 |    143853    |   161175
       10  | 35:49.01 |  5:48.03 |    161176    |   187278
       11  | 41:37.04 |  4:38.36 |    187279    |   208164
       12  | 46:15.40 |  3:22.53 |    208165    |   223367
       13  | 49:38.18 |  4:34.42 |    223368    |   243959
       14  | 54:12.60 |  5:39.11 |    243960    |   269395
       15  | 59:51.71 |  4:06.07 |    269396    |   287852
       16  | 63:58.03 |  5:01.41 |    287853    |   310468
       17  | 68:59.44 |  5:22.67 |    310469    |   334685
Track  1
     Filename C:\Netzordner\2013 - Trance Nation\CD2\01-Alexx Rave - Man Who'll Save The Earth.wav
     Pre-gap length  0:00:02.00
     Peak level 98.8 %
     Extraction speed 1.2 X
     Track quality 100.0 %
     Test CRC 0EA70199
     Copy CRC 0EA70199
     Accurately ripped (confidence 1)  [3D483804]  (AR v2)
     Copy OK
Track  2
     Filename C:\Netzordner\2013 - Trance Nation\CD2\02-Tangle & Matuesz - Omega.wav
     Peak level 98.8 %
     Extraction speed 5.5 X
     Track quality 100.0 %
     Test CRC 33839688
     Copy CRC 33839688
     Accurately ripped (confidence 1)  [724256E7]  (AR v2)
     Copy OK
Track  3
     Filename C:\Netzordner\2013 - Trance Nation\CD2\03-Lele Troniq - Sirio feat. Simona Barbieri.wav
     Peak level 98.8 %
     Extraction speed 5.9 X
     Track quality 100.0 %
     Test CRC A6100DCE
     Copy CRC A6100DCE
     Accurately ripped (confidence 1)  [47FC6D52]  (AR v2)
     Copy OK
Track  4
     Filename C:\Netzordner\2013 - Trance Nation\CD2\04-Ilan Bluestone & Jerome Isma-Ae - Under My Skin.wav
     Peak level 98.8 %
     Extraction speed 5.5 X
     Track quality 99.9 %
     Test CRC 123DE144
     Copy CRC 123DE144
     Accurately ripped (confidence 1)  [68B4B202]  (AR v2)
     Copy OK
Track  5
     Filename C:\Netzordner\2013 - Trance Nation\CD2\05-Mark Eteson - Aventus.wav
     Peak level 98.8 %
     Extraction speed 6.4 X
     Track quality 100.0 %
     Test CRC 37E04E95
     Copy CRC 37E04E95
     Accurately ripped (confidence 1)  [5EF96B79]  (AR v2)
     Copy OK
Track  6
     Filename C:\Netzordner\2013 - Trance Nation\CD2\06-Stephen Kirkwood - Mars One.wav
     Peak level 98.8 %
     Extraction speed 6.0 X
     Track quality 99.9 %
     Test CRC 3618CD94
     Copy CRC 3618CD94
     Accurately ripped (confidence 1)  [692C1F2E]  (AR v2)
     Copy OK
Track  7
     Filename C:\Netzordner\2013 - Trance Nation\CD2\07-Alex Larichev - Leave Me Behind feat. Invi Tado.wav
     Peak level 98.8 %
     Extraction speed 6.4 X
     Track quality 99.9 %
     Test CRC AF4FFEDD
     Copy CRC AF4FFEDD
     Accurately ripped (confidence 1)  [598E9781]  (AR v2)
     Copy OK
Track  8
     Filename C:\Netzordner\2013 - Trance Nation\CD2\08-Heatbeat - #BOOM.wav
     Peak level 98.8 %
     Extraction speed 7.7 X
     Track quality 100.0 %
     Test CRC 6C707306
     Copy CRC 6C707306
     Accurately ripped (confidence 1)  [85D873D5]  (AR v2)
     Copy OK
Track  9
     Filename C:\Netzordner\2013 - Trance Nation\CD2\09-Ferry Corsten - F The Bullshit.wav
     Peak level 98.8 %
     Extraction speed 7.8 X
     Track quality 100.0 %
     Test CRC 185D9D6E
     Copy CRC 185D9D6E
     Accurately ripped (confidence 1)  [18239BCF]  (AR v2)
     Copy OK
Track 10
     Filename C:\Netzordner\2013 - Trance Nation\CD2\10-Cosmic Gate - Storm Chaser (Extended Mix).wav
     Peak level 98.8 %
     Extraction speed 7.8 X
     Track quality 99.9 %
     Test CRC B62F5DD3
     Copy CRC B62F5DD3
     Accurately ripped (confidence 1)  [5E2A2C15]  (AR v2)
     Copy OK
Track 11
     Filename C:\Netzordner\2013 - Trance Nation\CD2\11-Rex Mundi - Seek & Destroy.wav
     Peak level 98.8 %
     Extraction speed 8.8 X
     Track quality 100.0 %
     Test CRC 51B8D96B
     Copy CRC 51B8D96B
     Accurately ripped (confidence 1)  [428FBD09]  (AR v2)
     Copy OK
Track 12
     Filename C:\Netzordner\2013 - Trance Nation\CD2\12-Lange Presents LNG - Harmony Will Kick You In The Ass (Chris Schweizer Remix).wav
     Peak level 98.8 %
     Extraction speed 8.7 X
     Track quality 100.0 %
     Test CRC DF2D23A2
     Copy CRC DF2D23A2
     Accurately ripped (confidence 1)  [DD6BE0E9]  (AR v2)
     Copy OK
Track 13
     Filename C:\Netzordner\2013 - Trance Nation\CD2\13-Daniel Kandi & Jack Rowan - Arigatou.wav
     Peak level 98.8 %
     Extraction speed 8.3 X
     Track quality 99.9 %
     Test CRC F7E2DDC0
     Copy CRC F7E2DDC0
     Accurately ripped (confidence 1)  [F17E9A53]  (AR v2)
     Copy OK
Track 14
     Filename C:\Netzordner\2013 - Trance Nation\CD2\14-Shogun Vs Ana Criado & Ronski Speed - Supernova Afterglow (SaF Mashup - Lange Edit).wav
     Peak level 98.8 %
     Extraction speed 9.7 X
     Track quality 100.0 %
     Test CRC 3D3733D6
     Copy CRC 3D3733D6
     Accurately ripped (confidence 1)  [8FC6C8AF]  (AR v2)
     Copy OK
Track 15
     Filename C:\Netzordner\2013 - Trance Nation\CD2\15-Orjan Nilsen - Violetta.wav
     Peak level 98.8 %
     Extraction speed 9.7 X
     Track quality 100.0 %
     Test CRC AB60AC8C
     Copy CRC AB60AC8C
     Accurately ripped (confidence 1)  [63A22641]  (AR v2)
     Copy OK
Track 16
     Filename C:\Netzordner\2013 - Trance Nation\CD2\16-Stuart McLellan - Downtime.wav
     Peak level 98.8 %
     Extraction speed 10.1 X
     Track quality 100.0 %
     Test CRC 2C36588D
     Copy CRC 2C36588D
     Accurately ripped (confidence 1)  [E0E17EBF]  (AR v2)
     Copy OK
Track 17
     Filename C:\Netzordner\2013 - Trance Nation\CD2\17-Lange - Hold That Sucker Down.wav
     Peak level 98.8 %
     Extraction speed 10.6 X
     Track quality 100.0 %
     Test CRC 7D32B8DD
     Copy CRC 7D32B8DD
     Accurately ripped (confidence 1)  [8DAB289D]  (AR v2)
     Copy OK
All tracks accurately ripped
No errors occurred
End of status report

содержание индексной карты *cue

CD 1

Код:
REM GENRE Trance
REM DATE 2013
REM DISCID F8122C11
REM COMMENT "ExactAudioCopy v1.0b3"
PERFORMER "Lange"
TITLE "Trance  Nation"
FILE "01-Yahel & Liya - I Dive.wav" WAVE
  TRACK 01 AUDIO
    TITLE "I Dive"
    PERFORMER "Yahel & Liya"
    INDEX 01 00:00:00
FILE "02-Passenger 75 - Contact.wav" WAVE
  TRACK 02 AUDIO
    TITLE "Contact"
    PERFORMER "Passenger 75"
    INDEX 01 00:00:00
FILE "03-Kyau & Albert With Stoneface & Terminal - We Own The Night.wav" WAVE
  TRACK 03 AUDIO
    TITLE "We Own The Night"
    PERFORMER "Kyau & Albert With Stoneface & Terminal"
    INDEX 01 00:00:00
FILE "04-Lange - Our Brief Time In The Sun.wav" WAVE
  TRACK 04 AUDIO
    TITLE "Our Brief Time In The Sun"
    PERFORMER "Lange"
    INDEX 01 00:00:00
FILE "05-Cosmic Gate - All Around You (Alexander Popov Remix) feat. Myon & Shane 54 & Aruna.wav" WAVE
  TRACK 05 AUDIO
    TITLE "All Around You (Alexander Popov Remix) feat. Myon & Shane 54 & Aruna"
    PERFORMER "Cosmic Gate"
    INDEX 01 00:00:00
FILE "06-Super8 & Tab - The Way You Want.wav" WAVE
  TRACK 06 AUDIO
    TITLE "The Way You Want"
    PERFORMER "Super8 & Tab"
    INDEX 01 00:00:00
FILE "07-Rank 1 - Floorlifter.wav" WAVE
  TRACK 07 AUDIO
    TITLE "Floorlifter"
    PERFORMER "Rank 1"
    INDEX 01 00:00:00
FILE "08-Arty - Believe In Me (Instrumental Mix).wav" WAVE
  TRACK 08 AUDIO
    TITLE "Believe In Me (Instrumental Mix)"
    PERFORMER "Arty"
    INDEX 01 00:00:00
FILE "09-Lange - Crossroads (Estiva Remix) feat. Stine Grove.wav" WAVE
  TRACK 09 AUDIO
    TITLE "Crossroads (Estiva Remix) feat. Stine Grove"
    PERFORMER "Lange"
    INDEX 01 00:00:00
FILE "10-Andy Moor & Betsie Larkin - Love Again (Andrew Rayel Remix).wav" WAVE
  TRACK 10 AUDIO
    TITLE "Love Again (Andrew Rayel Remix)"
    PERFORMER "Andy Moor & Betsie Larkin"
    INDEX 01 00:00:00
FILE "11-Lange - Unfamiliar Truth (TN Edit) feat. Hysteria!.wav" WAVE
  TRACK 11 AUDIO
    TITLE "Unfamiliar Truth (TN Edit) feat. Hysteria!"
    PERFORMER "Lange"
    INDEX 01 00:00:00
FILE "12-Bobina & Betsie Larkin - No Substitute For You (Andy Duguid Remix).wav" WAVE
  TRACK 12 AUDIO
    TITLE "No Substitute For You (Andy Duguid Remix)"
    PERFORMER "Bobina & Betsie Larkin"
    INDEX 01 00:00:00
FILE "13-Tomas Heredia - Alchemist.wav" WAVE
  TRACK 13 AUDIO
    TITLE "Alchemist"
    PERFORMER "Tomas Heredia"
    INDEX 01 00:00:00
FILE "14-Lange - Destination Anywhere.wav" WAVE
  TRACK 14 AUDIO
    TITLE "Destination Anywhere"
    PERFORMER "Lange"
    INDEX 01 00:00:00
FILE "15-Rikkaz - The Great Migration.wav" WAVE
  TRACK 15 AUDIO
    TITLE "The Great Migration"
    PERFORMER "Rikkaz"
    INDEX 01 00:00:00
FILE "16-Planet Perfecto Knights Vs Craig Connelly - Absolute Resurection (Lange Mashup).wav" WAVE
  TRACK 16 AUDIO
    TITLE "Absolute Resurection (Lange Mashup)"
    PERFORMER "Planet Perfecto Knights Vs Craig Connelly"
    INDEX 01 00:00:00
FILE "17-Lange - Follow Me (2013 Rework) feat. The Morrighan.wav" WAVE
  TRACK 17 AUDIO
    TITLE "Follow Me (2013 Rework) feat. The Morrighan"
    PERFORMER "Lange"
    INDEX 01 00:00:00

CD 2

Код:
REM GENRE Trance
REM DATE 2013
REM DISCID 01116E11
REM COMMENT "ExactAudioCopy v1.0b3"
PERFORMER "Lange"
TITLE "Trance Nation"
FILE "01-Alexx Rave - Man Who'll Save The Earth.wav" WAVE
  TRACK 01 AUDIO
    TITLE "Man Who'll Save The Earth"
    PERFORMER "Alexx Rave"
    INDEX 01 00:00:00
FILE "02-Tangle & Matuesz - Omega.wav" WAVE
  TRACK 02 AUDIO
    TITLE "Omega"
    PERFORMER "Tangle & Matuesz"
    INDEX 01 00:00:00
FILE "03-Lele Troniq - Sirio feat. Simona Barbieri.wav" WAVE
  TRACK 03 AUDIO
    TITLE "Sirio feat. Simona Barbieri"
    PERFORMER "Lele Troniq"
    INDEX 01 00:00:00
FILE "04-Ilan Bluestone & Jerome Isma-Ae - Under My Skin.wav" WAVE
  TRACK 04 AUDIO
    TITLE "Under My Skin"
    PERFORMER "Ilan Bluestone & Jerome Isma-Ae"
    INDEX 01 00:00:00
FILE "05-Mark Eteson - Aventus.wav" WAVE
  TRACK 05 AUDIO
    TITLE "Aventus"
    PERFORMER "Mark Eteson"
    INDEX 01 00:00:00
FILE "06-Stephen Kirkwood - Mars One.wav" WAVE
  TRACK 06 AUDIO
    TITLE "Mars One"
    PERFORMER "Stephen Kirkwood"
    INDEX 01 00:00:00
FILE "07-Alex Larichev - Leave Me Behind feat. Invi Tado.wav" WAVE
  TRACK 07 AUDIO
    TITLE "Leave Me Behind feat. Invi Tado"
    PERFORMER "Alex Larichev"
    INDEX 01 00:00:00
FILE "08-Heatbeat - #BOOM.wav" WAVE
  TRACK 08 AUDIO
    TITLE "#BOOM"
    PERFORMER "Heatbeat"
    INDEX 01 00:00:00
FILE "09-Ferry Corsten - F The Bullshit.wav" WAVE
  TRACK 09 AUDIO
    TITLE "F The Bullshit"
    PERFORMER "Ferry Corsten"
    INDEX 01 00:00:00
FILE "10-Cosmic Gate - Storm Chaser (Extended Mix).wav" WAVE
  TRACK 10 AUDIO
    TITLE "Storm Chaser (Extended Mix)"
    PERFORMER "Cosmic Gate"
    INDEX 01 00:00:00
FILE "11-Rex Mundi - Seek & Destroy.wav" WAVE
  TRACK 11 AUDIO
    TITLE "Seek & Destroy"
    PERFORMER "Rex Mundi"
    INDEX 01 00:00:00
FILE "12-Lange Presents LNG - Harmony Will Kick You In The Ass (Chris Schweizer Remix).wav" WAVE
  TRACK 12 AUDIO
    TITLE "Harmony Will Kick You In The Ass (Chris Schweizer Remix)"
    PERFORMER "Lange Presents LNG"
    INDEX 01 00:00:00
FILE "13-Daniel Kandi & Jack Rowan - Arigatou.wav" WAVE
  TRACK 13 AUDIO
    TITLE "Arigatou"
    PERFORMER "Daniel Kandi & Jack Rowan"
    INDEX 01 00:00:00
FILE "14-Shogun Vs Ana Criado & Ronski Speed - Supernova Afterglow (SaF Mashup - Lange Edit).wav" WAVE
  TRACK 14 AUDIO
    TITLE "Supernova Afterglow (SaF Mashup - Lange Edit)"
    PERFORMER "Shogun Vs Ana Criado & Ronski Speed"
    INDEX 01 00:00:00
FILE "15-Orjan Nilsen - Violetta.wav" WAVE
  TRACK 15 AUDIO
    TITLE "Violetta"
    PERFORMER "Orjan Nilsen"
    INDEX 01 00:00:00
FILE "16-Stuart McLellan - Downtime.wav" WAVE
  TRACK 16 AUDIO
    TITLE "Downtime"
    PERFORMER "Stuart McLellan"
    INDEX 01 00:00:00
FILE "17-Lange - Hold That Sucker Down.wav" WAVE
  TRACK 17 AUDIO
    TITLE "Hold That Sucker Down"
    PERFORMER "Lange"
    INDEX 01 00:00:00

_________________
Other forum [Profile] [PM]
Display posts from previous:    
Reply to topic

The time now is: Today 04:41

All times are GMT + 3 Hours



You cannot post new topics in this forum
You cannot reply to topics in this forum
You cannot edit your posts in this forum
You cannot delete your posts in this forum
You cannot vote in polls in this forum
You cannot attach files in this forum
You cannot download files in this forum