Today is a free download without charge Download

(Thrash Metal) [CD] Faith Or Fear - Instruments Of Death - 2009, FLAC (image+.cue), lossless

Reply to topic
 
Author
Message

Omen ®

Longevity: 8 years 3 months

Posts: 181087

Торрент-статистика

Post 17-May-2014 11:01

[Quote]

Faith Or Fear / Instruments Of Death
Жанр: Thrash Metal
Носитель: CD
Страна-производитель диска: USA
Год издания: 2009
Издатель (лейбл): Lost And Found Records
Номер по каталогу: LFR1007
Страна: USA
Аудиокодек: FLAC (*.flac)
Тип рипа: image+.cue
Битрейт аудио: lossless
Продолжительность: 00:53:42
Источник (релизер): Свой рип
Наличие сканов в содержимом раздачи: Booklet, Back
Треклист:
1. Dehumanized 04:29
2. Instruments of Death 03:10
3. Done in Vein 04:15
4. Got No Choice 03:20
5. Hidden By Animosity 05:00
6. True Life 03:27
7. Sacrifice 04:11
8. Nightmare of a Lifetime 04:15
9. Straight to Hell (Instrumental) 03:40
10. Disintegration 04:39
11. Power Lies 05:05
12. Darker Shade of Death 03:54
13. Planet X 03:56
14. Archie Bunker 00:14
Tracks 1-4 : Dehumanized Demo Re-recorded 2009
Tracks 5-9 : True Life Recording Sessions 1990
Tracks 10-14 : Power Lies Rare Demo Recordings 1989-1990

Лог создания рипа

Exact Audio Copy V1.0 beta 3 from 29. August 2011
EAC extraction logfile from 18. July 2013, 17:30
Faith Or Fear / Instruments Of Death
Used drive : Optiarc DVD RW AD-7170A Adapter: 0 ID: 0
Read mode : SecureUtilize accurate stream : YesDefeat audio cache : YesMake use of C2 pointers : No
Read offset correction : 48Overread into Lead-In and Lead-Out : NoFill up missing offset samples with silence : YesDelete leading and trailing silent blocks : NoNull samples used in CRC calculations : YesUsed interface : Native Win32 interface for Win NT & 2000
Used output format : Internal WAV RoutinesSample format : 44.100 Hz; 16 Bit; Stereo
TOC of the extracted CD
Track | Start | Length | Start sector | End sector --------------------------------------------------------- 1 | 0:00.00 | 4:29.06 | 0 | 20180 2 | 4:29.06 | 3:10.13 | 20181 | 34443 3 | 7:39.19 | 4:15.53 | 34444 | 53621 4 | 11:54.72 | 3:20.32 | 53622 | 68653 5 | 15:15.29 | 5:00.33 | 68654 | 91186 6 | 20:15.62 | 3:27.32 | 91187 | 106743 7 | 23:43.19 | 4:11.58 | 106744 | 125626 8 | 27:55.02 | 4:15.18 | 125627 | 144769 9 | 32:10.20 | 3:40.37 | 144770 | 161306 10 | 35:50.57 | 4:39.14 | 161307 | 182245 11 | 40:29.71 | 5:05.64 | 182246 | 205184 12 | 45:35.60 | 3:54.50 | 205185 | 222784 13 | 49:30.35 | 3:56.62 | 222785 | 240546 14 | 53:27.22 | 0:14.73 | 240547 | 241669
Range status and errors
Selected range
Filename D:\UPLOAD-Gosha7766\Faith Or Fear 2009 - Instruments Of Death\Faith Or Fear - Instruments Of Death.wav
Peak level 100.0 % Extraction speed 3.7 X Range quality 99.9 % Test CRC 46FBDC9B Copy CRC 46FBDC9B Copy OK
No errors occurred
AccurateRip summary
Track 1 accurately ripped (confidence 1) [76BE8CCF] (AR v1)Track 2 accurately ripped (confidence 1) [03F0F1D2] (AR v1)Track 3 accurately ripped (confidence 1) [F6F1FAE1] (AR v1)Track 4 accurately ripped (confidence 1) [AB9414BE] (AR v1)Track 5 accurately ripped (confidence 1) [7F8802D4] (AR v1)Track 6 accurately ripped (confidence 1) [7F01B189] (AR v1)Track 7 accurately ripped (confidence 1) [C399F2C7] (AR v1)Track 8 accurately ripped (confidence 1) [A009C360] (AR v1)Track 9 accurately ripped (confidence 1) [80E5CC4B] (AR v1)Track 10 accurately ripped (confidence 1) [AF18223D] (AR v1)Track 11 accurately ripped (confidence 1) [7943558B] (AR v1)Track 12 accurately ripped (confidence 1) [7859FC22] (AR v1)Track 13 accurately ripped (confidence 1) [F81637EB] (AR v1)Track 14 accurately ripped (confidence 1) [A9635D8C] (AR v1)
All tracks accurately ripped
End of status report
---- CUETools DB Plugin V2.1.3
[CTDB TOCID: R2RdkJarfdfJLZK2Sd5PTvmFcjM-] disk not present in database, Submit result: R2RdkJarfdfJLZK2Sd5PTvmFcjM- has been uploaded
==== Log checksum 2B82B17095E8A64D6902EE1D9A09ECC1D27AFDFA3902525CDC34514A20457CF9 ====

Состав

Tim Blackman - Vocals
Chris Bombeke - Guitar
CJ Jenkins - Bass
Ed Schwegel - Drums
Other forum [Profile] [PM]
Similar theme
Forum Topic Author Torrent Replies Last Post
./templates/default/images/folder_dl.gif Metal (Thrash Metal) Kat - Metal And Hell - 1985 (2003 Re-Issue), FLAC (image+.cue), lossless Omen
1 | 0

0 | 1249

3

2013-10-08 00:55
Omen Latest
./templates/default/images/folder_dl.gif Metal (Thrash Metal) [CD] Catalepsy - Dragged Inside Out - 1994, FLAC (image+.cue), lossless Omen
1 | 0

0 | 481

0

2014-08-17 14:02
Omen Latest
./templates/default/images/folder_dl.gif Metal (Thrash Metal) [CD] Catalepsy - Fruitcakes We Have Known - 1993, FLAC (image+.cue), lossless Omen
1 | 0

0 | 443

0

2014-09-07 17:54
Omen Latest
./templates/default/images/folder_dl.gif Metal (Thrash Metal) Thybreath - Where the Gods Fall - 2015, MP3, 320 kbps Omen
0 | 1

0 | 1482

4

2015-10-22 18:00
Omen Latest
./templates/default/images/folder_dl.gif Metal (Thrash Metal) [CD] Accu§er (Accuser) - Double Talk [Reissue 1997, Remastered] - 1991, FLA - 1991, FLAC (image + .cue), lossless Kaustikk
1 | 0

1 | 4323

0

2018-02-05 20:55
Kaustikk Latest
Display posts from previous:    
Reply to topic

The time now is: Today 01:39

All times are GMT + 3 Hours



You cannot post new topics in this forum
You cannot reply to topics in this forum
You cannot edit your posts in this forum
You cannot delete your posts in this forum
You cannot vote in polls in this forum
You cannot attach files in this forum
You cannot download files in this forum