Today is a free download without charge Download

Jeff Steinberg - Cafe Cubano (2007) [FLAC|Lossless]<Jazz>

Reply to topic
 
Author
Message

sashau ®

Gender:

Longevity: 8 years

Posts: 3497

Торрент-статистика

Post 27-Apr-2014 08:38

[Quote]

Jeff Steinberg - Café Cubano
Instrumental Cuban Flavored Classics
- Год: 2007
Жанр: Jazz
Продолжительность: 00:44:27
Кодек: FLAC (image+.cue)
Битрейт: Lossless
Источник: Собственный рип
Издатель (лейбл): Village Square Music
Номер по каталогу: VSD3075
Треклист:
01. Perdido (3:29)
02. De-Lovely (3:34)
03. Perfidia (3:27)
04. Fascinatin' Rhythm (3:41)
05. Make Someone Happy (3:55)
06. Besame Mucho (4:09)
07. All or Nothing at All (4:05)
08. Speak Low (3:21)
09. Tangerine (3:23)
10. This Masquerade (4:31)
11. If I Were a Bell (3:33)
12. I Wish You Love (3:20)

Состав&#58;

Lori Mechem: piano
Roger Spencer: bass
Chris Brown: drums
Jack Jezzro: guitar
Eric Darken: percussion
George Tidwell: trumpet, flugelhorn
Denis Solee: tenor sax, flute
Roy Agee: trombone
Sam Levine: baritone sax
Jeff Steinberg: mallets, additional percussion

Отчёт ЕАС&#58;

Код:
Exact Audio Copy V1.0 beta 3 from 29. August 2011
Отчёт EAC об извлечении, выполненном 26. апреля 2014, 13:30
Jeff Steinberg / Café Cubano
Дисковод: _NEC    DVD_RW ND-3540A   Adapter: 0  ID: 0
Режим чтения                 : Достоверность
Использование точного потока : Да
Отключение кэша аудио        : Да
Использование указателей C2  : Нет
Коррекция смещения при чтении                     : 48
Способность читать области Lead-in и Lead-out     : Нет
Заполнение пропущенных сэмплов тишиной            : Да
Удаление блоков с тишиной в начале и конце        : Нет
При вычислениях CRC использовались нулевые сэмплы : Да
Интерфейс                                         : Встроенный Win32-интерфейс для Win NT/2000
Выходной формат          : Пользовательский кодировщик
Выбранный битрейт        : 512 kBit/s
Качество                 : Высокий
Добавление ID3-тега      : Нет
Утилита сжатия           : G:\Program Files\Exact Audio Copy\Flac\flac.exe
Дополнительные параметры : -V -8 -T "Date=%year%" -T "Genre=%genre%" %source%
TOC извлечённого CD
     Трек |   Старт  | Длительность | Начальный сектор | Конечный сектор
    ---------------------------------------------------------------------
       1  |  0:00.00 |    3:28.60   |           0      |      15659
       2  |  3:28.60 |    3:33.62   |       15660      |      31696
       3  |  7:02.47 |    3:27.34   |       31697      |      47255
       4  | 10:30.06 |    3:40.62   |       47256      |      63817
       5  | 14:10.68 |    3:54.44   |       63818      |      81411
       6  | 18:05.37 |    4:09.01   |       81412      |     100087
       7  | 22:14.38 |    4:05.33   |      100088      |     118495
       8  | 26:19.71 |    3:20.55   |      118496      |     133550
       9  | 29:40.51 |    3:22.47   |      133551      |     148747
      10  | 33:03.23 |    4:30.46   |      148748      |     169043
      11  | 37:33.69 |    3:32.60   |      169044      |     185003
      12  | 41:06.54 |    3:20.30   |      185004      |     200033
Характеристики диапазона извлечения и сообщения об ошибках
Выбранный диапазон
     Имя файла Z:\Download\Music\MyOwn\Jeff Steinberg - 2007 - Cafe Cubano\Jeff Steinberg - Cafe Cubano.wav
     Пиковый уровень 99.9 %
     Скорость извлечения 6.7 X
     Качество диапазона 100.0 %
     CRC теста 91E0D5D8
     CRC копии 91E0D5D8
     Копирование... OK
Ошибок не произошло
AccurateRip: сводка
Трек  1  отсутствует в базе данных
Трек  2  отсутствует в базе данных
Трек  3  отсутствует в базе данных
Трек  4  отсутствует в базе данных
Трек  5  отсутствует в базе данных
Трек  6  отсутствует в базе данных
Трек  7  отсутствует в базе данных
Трек  8  отсутствует в базе данных
Трек  9  отсутствует в базе данных
Трек 10  отсутствует в базе данных
Трек 11  отсутствует в базе данных
Трек 12  отсутствует в базе данных
Ни одного трека нет в базе AccurateRip
Конец отчёта
==== Контрольная сумма отчёта FA5FA60DBF305DA0B584481AFB62A220AABCE220F45F7F902E4EF546711BA497 ====

Отчёт auCDtect Task manager&#58;

Код:
-----------------------
DON'T MODIFY THIS FILE
-----------------------
PERFORMER: auCDtect Task Manager, ver. 1.6.0 RC1 build 1.6.0.1
Copyright (c) 2008-2010 y-soft. All rights reserved
http://y-soft.org
ANALYZER: auCDtect: CD records authenticity detector, version 0.8.2
Copyright (c) 2004 Oleg Berngardt. All rights reserved.
Copyright (c) 2004 Alexander Djourik. All rights reserved.
FILE: Jeff Steinberg - Cafe Cubano.flac
  Size: 303977637 Hash: 7EB6C3B7F772428C4C7398C40BBBC2F1 Accuracy: -m0
  Conclusion: CDDA 100%
  Signature: E8BF05DC84BB5A35D683C83D5F686CE1FB3F24F6

Содержимое индексной карты&#58;

Код:
REM GENRE Jazz
REM DATE 2007
REM DISCID A00A6B0C
REM COMMENT "ExactAudioCopy v1.0b3"
PERFORMER "Jeff Steinberg"
TITLE "Cafe Cubano"
FILE "Jeff Steinberg - Cafe Cubano.flac" WAVE
  TRACK 01 AUDIO
    TITLE "Perdido"
    PERFORMER "Jeff Steinberg"
    FLAGS DCP
    INDEX 01 00:00:00
  TRACK 02 AUDIO
    TITLE "De-Lovely"
    PERFORMER "Jeff Steinberg"
    FLAGS DCP
    INDEX 00 03:25:66
    INDEX 01 03:28:60
  TRACK 03 AUDIO
    TITLE "Perfidia"
    PERFORMER "Jeff Steinberg"
    FLAGS DCP
    INDEX 00 06:59:53
    INDEX 01 07:02:47
  TRACK 04 AUDIO
    TITLE "Fascinatin' Rhythm"
    PERFORMER "Jeff Steinberg"
    FLAGS DCP
    INDEX 00 10:27:12
    INDEX 01 10:30:06
  TRACK 05 AUDIO
    TITLE "Make Someone Happy"
    PERFORMER "Jeff Steinberg"
    FLAGS DCP
    INDEX 00 14:07:74
    INDEX 01 14:10:68
  TRACK 06 AUDIO
    TITLE "Besame Mucho"
    PERFORMER "Jeff Steinberg"
    FLAGS DCP
    INDEX 00 18:02:43
    INDEX 01 18:05:37
  TRACK 07 AUDIO
    TITLE "All or Nothing at All"
    PERFORMER "Jeff Steinberg"
    FLAGS DCP
    INDEX 00 22:11:44
    INDEX 01 22:14:38
  TRACK 08 AUDIO
    TITLE "Speak Low"
    PERFORMER "Jeff Steinberg"
    FLAGS DCP
    INDEX 00 26:17:02
    INDEX 01 26:19:71
  TRACK 09 AUDIO
    TITLE "Tangerine"
    PERFORMER "Jeff Steinberg"
    FLAGS DCP
    INDEX 00 29:37:57
    INDEX 01 29:40:51
  TRACK 10 AUDIO
    TITLE "This Masquerade"
    PERFORMER "Jeff Steinberg"
    FLAGS DCP
    INDEX 00 33:00:29
    INDEX 01 33:03:23
  TRACK 11 AUDIO
    TITLE "If I Were a Bell"
    PERFORMER "Jeff Steinberg"
    FLAGS DCP
    INDEX 00 37:31:00
    INDEX 01 37:33:69
  TRACK 12 AUDIO
    TITLE "I Wish You Love"
    PERFORMER "Jeff Steinberg"
    FLAGS DCP
    INDEX 00 41:03:60
    INDEX 01 41:06:54

Dynamic Range Meter&#58;

Код:
foobar2000 1.3.1 / Замер динамического диапазона (DR) 1.1.1
Дата отчёта: 2014-04-26 13:33:42
--------------------------------------------------------------------------------
Анализ:   Jeff Steinberg / Cafe Cubano
--------------------------------------------------------------------------------
DR         Пики           RMS        Продолжительность трека
--------------------------------------------------------------------------------
DR10      -0.22 дБ   -12.12 дБ      3:29 01-Perdido
DR12      -0.01 дБ   -14.23 дБ      3:34 02-De-Lovely
DR11      -0.01 дБ   -13.36 дБ      3:27 03-Perfidia
DR12      -0.01 дБ   -13.29 дБ      3:41 04-Fascinatin' Rhythm
DR13      -0.01 дБ   -14.58 дБ      3:55 05-Make Someone Happy
DR11      -0.01 дБ   -12.87 дБ      4:09 06-Besame Mucho
DR11      -0.01 дБ   -13.75 дБ      4:05 07-All or Nothing at All
DR11      -0.01 дБ   -12.81 дБ      3:21 08-Speak Low
DR11      -0.01 дБ   -13.54 дБ      3:23 09-Tangerine
DR12      -0.01 дБ   -13.80 дБ      4:31 10-This Masquerade
DR11      -0.01 дБ   -12.89 дБ      3:33 11-If I Were a Bell
DR11      -0.01 дБ   -13.08 дБ      3:20 12-I Wish You Love
--------------------------------------------------------------------------------
Количество треков:   12
Реальные значения DR:   DR11
Частота:    44100 гц
Каналов:    2
Бит на сэмпл:      16
Битрейт:    912 кбит/с
Кодек:      FLAC
================================================================================
Other forum [Profile] [PM]
Display posts from previous:    
Reply to topic

The time now is: Today 21:35

All times are GMT + 3 Hours



You cannot post new topics in this forum
You cannot reply to topics in this forum
You cannot edit your posts in this forum
You cannot delete your posts in this forum
You cannot vote in polls in this forum
You cannot attach files in this forum
You cannot download files in this forum