Today is a free download without charge Download

Трансформеры: Эпоха истребления в 3Д / Transformers: Age Of Extinction 3D (Майкл Бэй) [2014, фантастика, боевик, приключения, DCPrip, 1080p] Half OverUnder / Вертикальная анаморфная стереопара / трейлер

Reply to topic
 
Author
Message

Omen ®

Longevity: 7 years 1 month

Posts: 181090

Торрент-статистика

Post 14-Apr-2014 20:01

[Quote]

Трансформеры: Эпоха истребления / Transformers: Age Of Extinction / Трейлер
«Правила изменились» Год выпуска: 2014
Страна: США, Китай
Жанр: фантастика, боевик, приключения
Продолжительность: 00:02:25
Перевод: Профессиональный (дублированный)
Русские субтитры: нет
Режиссер на русском: Майкл Бэй
В ролях: Никола Пельтц,Марк Уолберг,Эбигейл Клейн,Стэнли Туччи,София Майлс.
Описание: Автоботы и десептиконы покинули планету, оставив человечество собирать ее по кусочкам. Между тем группа могущественных бизнесменов и гениальных ученых пытается извлечь уроки из ошибок прошлого и улучшить технологии до такой степени, чтобы выйти за пределы контролируемого ранее. В это время другая группа — древних мощных трансформеров — берет Землю под прицел.
Качество: DCPrip
Контейнер: MKV
Формат 3D: Half OverUnder / Вертикальная анаморфная стереопара
Порядок ракурсов: левый ракурс первый
Видео кодек: h.264
Аудио кодек: AC3
Видео: MPEG4 Video (H264),1920х1080,24fps,50.0 Мбит/сек
Аудио: Rus, AC3 48000Hz 640Kbps 6ch

MediaInfo

General
Unique ID : 232191494936349960257823435365142719785 (0xAEAE748E14ED2F09B400EA1A33376D29)
Complete name : F:\T43D.mkv
Format : Matroska
Format version : Version 4 / Version 2
File size : 498 MiB
Duration : 2mn 25s
Overall bit rate mode : Variable
Overall bit rate : 28.7 Mbps
Encoded date : UTC 2014-04-12 01:12:43
Writing application : mkvmerge v6.8.0 ('Theme for Great Cities') 64bit built on Mar 2 2014 21:34:26
Writing library : libebml v1.3.0 + libmatroska v1.4.1
Video
ID : 1
Format : AVC
Format/Info : Advanced Video Codec
Format profile : High@L4.1
Format settings, CABAC : Yes
Format settings, ReFrames : 4 frames
Codec ID : V_MPEG4/ISO/AVC
Duration : 2mn 25s
Bit rate mode : Variable
Bit rate : 27.5 Mbps
Maximum bit rate : 50.0 Mbps
Width : 1 920 pixels
Height : 1 080 pixels
Display aspect ratio : 16:9
Frame rate mode : Constant
Frame rate : 24.000 fps
Standard : NTSC
Color space : YUV
Chroma subsampling : 4:2:0
Bit depth : 8 bits
Scan type : Progressive
Bits/(Pixel*Frame) : 0.553
Stream size : 477 MiB (96%)
Default : Yes
Forced : No
Color primaries : BT.709
Transfer characteristics : BT.709
Matrix coefficients : BT.709
Audio
ID : 2
Format : AC-3
Format/Info : Audio Coding 3
Mode extension : CM (complete main)
Format settings, Endianness : Big
Codec ID : A_AC3
Duration : 2mn 25s
Bit rate mode : Constant
Bit rate : 640 Kbps
Channel(s) : 6 channels
Channel positions : Front: L C R, Side: L R, LFE
Sampling rate : 48.0 KHz
Bit depth : 16 bits
Compression mode : Lossy
Stream size : 11.1 MiB (2%)
Language : Russian
Default : Yes
Forced : No

Скриншоты



Other forum [Profile] [PM]
Similar theme
Forum Topic Author Torrent Replies Last Post
./templates/default/images/folder_dl.gif RePack Transformers: Rise of the Dark Spark / Трансформеры: Битва за Тёмную Искру v.1.0.0+4dlc (2014) [Ru/En] Repack R.G. Механики sashau
1 | 0

0 | 2451

26

2014-06-27 13:27
sashau Latest
./templates/default/images/folder_dl.gif Техническая и научно-популярная литература Сергей Попов | Вселенная. Краткий путеводитель по пространству и времени: от Солнечной системы до самых далеких галактик и от Большого взрыва до будущего Вселенной (2018) [FB2] }{@R0N
1 | 0

0 | 1297

7

2018-12-08 23:06
}{@R0N Latest
./templates/default/images/folder_dl.gif Техническая и научно-популярная литература В.А. Ацюковский | Трансформатор Тесла: Энергия из эфира (2004) [DJVU] }{@R0N
1 | 0

0 | 550

0

2019-03-31 14:41
}{@R0N Latest
Display posts from previous:    
Reply to topic

The time now is: Today 12:08

All times are GMT + 3 Hours



You cannot post new topics in this forum
You cannot reply to topics in this forum
You cannot edit your posts in this forum
You cannot delete your posts in this forum
You cannot vote in polls in this forum
You cannot attach files in this forum
You cannot download files in this forum