Today is a free download without charge Download

(Progressive Thrash Metal) Mekong Delta - Дискография 19 CD, (обновление 23-02-14), FLAC (image + .cue), lossless

Reply to topic
 
Author
Message

Omen ®

Longevity: 8 years 1 month

Posts: 181087

Торрент-статистика

Post 23-Feb-2014 11:00

[Quote]

Страна: Germany
Жанр: Progressive Thrash Metal
Год выпуска: 1987 - 2012
Формат: FLAC (image + .cue)
Битрейт аудио: lossless

1987 - Mekong Delta+The Music Of Erich Zann [1990, TECP-25547, Japan]

01. Without Honour (3:48)
02. The Cure (3:40)
03. The Hut Of Baba Yaga (4:14)
04. Heroes Grief (4:44)
05. Kill The Enemy (3:53)
06. Nightmare Patrol (3:27)
07. Shivas Return (4:11)
08. Black Sabbath (4:06)
09. Back Home (3:47)
10. Age Of Agony (3:13)
11. True Lies (5:34)
12. Confession Of Madness (3:55)
13. Hatred (3:24)
14. Interludium (Begging For Mercy) (3:10)
15. Prophecy (3:53)
16. Memories Of Tomorrow (4:16)
17. I, King, Will Come (5:08)
18. The Final Deluge (2:58)
19. Epilogue (1:46)
20. The Gnom (2:56)

Лог создания рипа

Exact Audio Copy V0.99 prebeta 5 from 4. May 2009
Archivo Log de extracciones desde 24. Febrero 2012, 18:11
Mekong Delta / Mekong Delta + The Music Of Erich Zann - Japan (TECP-25547)
Usar unidad : HL-DT-STDVDRAM GH22NS70 Adapter: 0 ID: 0
Modo de Lectura : SeguroUtilizar Corriente Exacta : SнDescartar Audio cachй : SнUtilizar los punteros C2 : No
Correcciуn de Desplazamiento de Lectura : 667Sobreleer tanto en Lead-In como en Lead-Out : NoRellenar las muestras faltantes con silencios : SнEliminar silencios inicial y final : NoSe han usado muestras nulas en los cбlculos CRC : SнInterfaz usada : Interfaz propio de Win32 para Windowns NT y 2000
Formato de Salida utilizado : Compresor sin pйrdida Monkey's AudioBitrate seleccionado : High Lossless CompressionCalidad : AltaAсadir Etiqueta ID3 : SнCompresor de linea de comandos : C:\Program Files (x86)\Exact Audio Copy\MAC.exe
TOC del CD extraido
Pista | Inicio | Duraciуn | Sector inicial | Sector final ------------------------------------------------------------- 1 | 0:00.00 | 3:48.00 | 0 | 17099 2 | 3:48.00 | 3:39.70 | 17100 | 33594 3 | 7:27.70 | 4:14.00 | 33595 | 52644 4 | 11:41.70 | 4:44.08 | 52645 | 73952 5 | 16:26.03 | 3:53.02 | 73953 | 91429 6 | 20:19.05 | 3:27.03 | 91430 | 106957 7 | 23:46.08 | 4:10.40 | 106958 | 125747 8 | 27:56.48 | 4:06.00 | 125748 | 144197 9 | 32:02.48 | 3:46.40 | 144198 | 161187 10 | 35:49.13 | 3:12.60 | 161188 | 175647 11 | 39:01.73 | 5:34.10 | 175648 | 200707 12 | 44:36.08 | 3:54.52 | 200708 | 218309 13 | 48:30.60 | 3:23.55 | 218310 | 233589 14 | 51:54.40 | 3:09.58 | 233590 | 247822 15 | 55:04.23 | 3:53.30 | 247823 | 265327 16 | 58:57.53 | 4:15.65 | 265328 | 284517 17 | 63:13.43 | 5:07.67 | 284518 | 307609 18 | 68:21.35 | 2:57.58 | 307610 | 320942 19 | 71:19.18 | 1:46.27 | 320943 | 328919 20 | 73:05.45 | 2:55.55 | 328920 | 342099
Gama de estados y errores
Seleccionar gama
Nombre de Archivo E:\Mъsica\EAC\Mekong Delta\Mekon Delta Erich Zann\Mekong Delta - Mekong Delta + The Music Of Erich Zann - Japan (TECP-25547).wav
Nivel Pico 100.0 % Gama de Calidad 100.0 % Test CRC C777F602 Copiar CRC C777F602 Copia OK
Sin Errores
Resumen AccurateRip
Pista 1 extraido de modo preciso (nivel de confianza 1) [12825B3E]Pista 2 extraido de modo preciso (nivel de confianza 1) [B2F65066]Pista 3 extraido de modo preciso (nivel de confianza 1) [1B7B306F]Pista 4 extraido de modo preciso (nivel de confianza 1) [A7FB74AF]Pista 5 extraido de modo preciso (nivel de confianza 1) [527B0CD1]Pista 6 extraido de modo preciso (nivel de confianza 1) [420D834F]Pista 7 extraido de modo preciso (nivel de confianza 1) [71D177F4]Pista 8 extraido de modo preciso (nivel de confianza 1) [B8D0E66F]Pista 9 extraido de modo preciso (nivel de confianza 1) [E9DA78ED]Pista 10 extraido de modo preciso (nivel de confianza 1) [1ECD8BCF]Pista 11 extraido de modo preciso (nivel de confianza 1) [B0F32037]Pista 12 extraido de modo preciso (nivel de confianza 1) [99D4709D]Pista 13 extraido de modo preciso (nivel de confianza 1) [E4A20830]Pista 14 extraido de modo preciso (nivel de confianza 1) [3F87659B]Pista 15 extraido de modo preciso (nivel de confianza 1) [040EE37F]Pista 16 extraido de modo preciso (nivel de confianza 1) [8A97DA37]Pista 17 extraido de modo preciso (nivel de confianza 1) [63E38DCC]Pista 18 extraido de modo preciso (nivel de confianza 1) [0C91713E]Pista 19 extraido de modo preciso (nivel de confianza 1) [C5567CA3]Pista 20 extraido de modo preciso (nivel de confianza 1) [884096E5]
Todas las pistas extraidas de modo preciso
Final del Informe

1987 - Mekong Delta [2006, Remastered MYST CD 002, Russia]

01. Without Honour (3:50)
02. The Cure (3:43)
03. The Hut Of Baba Yaga (4:17)
04. Heroes Grief (4:46)
05. Kill The Enemy (3:55)
06. Nightmare Patrol (3:29)
07. Shivas Return (4:13)
08. Black Sabbath (4:08)
09. Back Home (3:47)
10. Toccata (6:03)
11. Black Betty (2:54)
12. Interludium (2nd Version) (2:08)

Лог создания рипа

Exact Audio Copy V1.0 beta 1 from 15. November 2010
EAC extraction logfile from 17. January 2011, 13:15
Mekong Delta / Mekong Delta
Used drive : PIONEER DVD-RW DVR-112D Adapter: 1 ID: 0
Read mode : SecureUtilize accurate stream : YesDefeat audio cache : YesMake use of C2 pointers : No
Read offset correction : 48Overread into Lead-In and Lead-Out : NoFill up missing offset samples with silence : YesDelete leading and trailing silent blocks : NoNull samples used in CRC calculations : YesUsed interface : Installed external ASPI interface
Used output format : User Defined EncoderSelected bitrate : 1024 kBit/sQuality : HighAdd ID3 tag : NoCommand line compressor : C:\Program Files\Exact Audio Copy\FLAC\FLAC.EXEAdditional command line options : -8 -V %s
TOC of the extracted CD
Track | Start | Length | Start sector | End sector --------------------------------------------------------- 1 | 0:00.00 | 3:50.05 | 0 | 17254 2 | 3:50.05 | 3:42.52 | 17255 | 33956 3 | 7:32.57 | 4:17.02 | 33957 | 53233 4 | 11:49.59 | 4:45.53 | 53234 | 74661 5 | 16:35.37 | 3:55.00 | 74662 | 92286 6 | 20:30.37 | 3:28.51 | 92287 | 107937 7 | 23:59.13 | 4:13.31 | 107938 | 126943 8 | 28:12.44 | 4:07.43 | 126944 | 145511 9 | 32:20.12 | 3:47.11 | 145512 | 162547 10 | 36:07.23 | 6:03.07 | 162548 | 189779 11 | 42:10.30 | 2:54.05 | 189780 | 202834 12 | 45:04.35 | 2:07.48 | 202835 | 212407
Range status and errors
Selected range
Filename C:\CDRip by Deminbek\Mekong Delta - Mekong Delta [MYST CD 002].wav
Peak level 96.6 % Extraction speed 0.3 X Range quality 100.0 % Test CRC DE32DA3C Copy CRC DE32DA3C Copy OK
No errors occurred
AccurateRip summary
Track 1 accurately ripped (confidence 5) [396A8F1E]Track 2 accurately ripped (confidence 5) [FF33EFF1]Track 3 accurately ripped (confidence 5) [B82FCBFB]Track 4 accurately ripped (confidence 5) [1B0CFEC7]Track 5 accurately ripped (confidence 5) [786DFFA9]Track 6 accurately ripped (confidence 5) [406B1AB3]Track 7 accurately ripped (confidence 5) [2553E093]Track 8 accurately ripped (confidence 5) [3B76BE1F]Track 9 accurately ripped (confidence 5) [1037C219]Track 10 accurately ripped (confidence 5) [76F70BD2]Track 11 accurately ripped (confidence 5) [8AAA27F3]Track 12 accurately ripped (confidence 5) [A88047F1]
All tracks accurately ripped
End of status report
==== Log checksum DF1CF05B062E80D10113C646A59EB108323EAC4080EB36B5FA2EA1C926F5A2C5 ====

1988 - The Music Of Erich Zann [2006, Remastered MYCT CD 003, Russia]

01. Age Of Agony (3:16)
02. True Lies (5:37)
03. Confession Of Madness (3:58)
04. Hatered (3:27)
05. Interludium (Begging For Mercy) (3:13)
06. Prophecy (3:56)
07. Memories Of Tomorrow (4:20)
08. I, King, Will Come (5:11)
09. The Final Deluge (3:01)
10. Epilogue (1:49)
11. The Gnom (2:55)

Лог создания рипа

Exact Audio Copy V1.0 beta 1 from 15. November 2010
EAC extraction logfile from 17. January 2011, 12:40
Mekong Delta / The Music Of Erich Zann
Used drive : PIONEER DVD-RW DVR-112D Adapter: 1 ID: 0
Read mode : SecureUtilize accurate stream : YesDefeat audio cache : YesMake use of C2 pointers : No
Read offset correction : 48Overread into Lead-In and Lead-Out : NoFill up missing offset samples with silence : YesDelete leading and trailing silent blocks : NoNull samples used in CRC calculations : YesUsed interface : Installed external ASPI interface
Used output format : User Defined EncoderSelected bitrate : 1024 kBit/sQuality : HighAdd ID3 tag : NoCommand line compressor : C:\Program Files\Exact Audio Copy\FLAC\FLAC.EXEAdditional command line options : -8 -V %s
TOC of the extracted CD
Track | Start | Length | Start sector | End sector --------------------------------------------------------- 1 | 0:00.00 | 3:15.45 | 0 | 14669 2 | 3:15.45 | 5:37.12 | 14670 | 39956 3 | 8:52.57 | 3:57.50 | 39957 | 57781 4 | 12:50.32 | 3:26.60 | 57782 | 73291 5 | 16:17.17 | 3:12.60 | 73292 | 87751 6 | 19:30.02 | 3:55.44 | 87752 | 105420 7 | 23:25.46 | 4:19.46 | 105421 | 124891 8 | 27:45.17 | 5:10.70 | 124892 | 148211 9 | 32:56.12 | 3:00.59 | 148212 | 161770 10 | 35:56.71 | 1:48.50 | 161771 | 169920 11 | 37:45.46 | 2:55.10 | 169921 | 183055
Range status and errors
Selected range
Filename C:\CDRip by Deminbek\Mekong Delta - The Music Of Erich Zann [MYST CD 003].wav
Peak level 96.6 % Extraction speed 0.4 X Range quality 100.0 % Test CRC 4E075DCF Copy CRC 4E075DCF Copy OK
No errors occurred
AccurateRip summary
Track 1 accurately ripped (confidence 3) [6E4A929D]Track 2 accurately ripped (confidence 3) [A2A09A76]Track 3 accurately ripped (confidence 3) [E51EAD15]Track 4 accurately ripped (confidence 3) [5DADFB3C]Track 5 accurately ripped (confidence 3) [D31B14DB]Track 6 accurately ripped (confidence 3) [D3C5E174]Track 7 accurately ripped (confidence 3) [F34B9DD6]Track 8 accurately ripped (confidence 3) [6C2754E0]Track 9 accurately ripped (confidence 3) [1A766CB8]Track 10 accurately ripped (confidence 3) [EE1D819A]Track 11 accurately ripped (confidence 3) [0A16B140]
All tracks accurately ripped
End of status report
==== Log checksum 8DB891E00EEBB2A732DA43278DB12198347A8E9F747AE2C103DAFC8F7925340A ====

1988 - The Music Of Erich Zann [2010, Remastered AAARRG 2010-3D]

01. Age Of Agony (3:15)
02. True Lies (5:36)
03. Confession Of Madness (3:57)
04. Hatered (3:26)
05. Interludium (Begging For Mercy) (3:12)
06. Prophecy (3:54)
07. Memories Of Tomorrow (4:19)
08. I, King, Will Come (5:10)
09. The Finale Deluge (3:00)
10. Epilogue (1:45)

Лог создания рипа

Exact Audio Copy V0.99 prebeta 5 from 4. May 2009
EAC extraction logfile from 20. January 2011, 0:08
Mekong Delta / The Music Of Erich Zann (Remastered)
Used drive : HL-DT-STDVDRAM GSA-H10A Adapter: 3 ID: 0
Read mode : SecureUtilize accurate stream : YesDefeat audio cache : YesMake use of C2 pointers : No
Read offset correction : 667Overread into Lead-In and Lead-Out : NoFill up missing offset samples with silence : YesDelete leading and trailing silent blocks : NoNull samples used in CRC calculations : YesUsed interface : Native Win32 interface for Win NT & 2000
Used output format : Monkey's Audio Lossless EncoderSelected bitrate : High Lossless CompressionQuality : HighAdd ID3 tag : YesCommand line compressor : C:\Archivos de programa\Monkey's Audio\MAC.exe
TOC of the extracted CD
Track | Start | Length | Start sector | End sector --------------------------------------------------------- 1 | 0:00.00 | 3:14.52 | 0 | 14601 2 | 3:14.52 | 5:36.19 | 14602 | 39820 3 | 8:50.71 | 3:56.60 | 39821 | 57580 4 | 12:47.56 | 3:25.66 | 57581 | 73021 5 | 16:13.47 | 3:11.66 | 73022 | 87412 6 | 19:25.38 | 3:54.36 | 87413 | 104998 7 | 23:19.74 | 4:18.53 | 104999 | 124401 8 | 27:38.52 | 5:10.04 | 124402 | 147655 9 | 32:48.56 | 2:59.66 | 147656 | 161146 10 | 35:48.47 | 1:45.07 | 161147 | 169028
Range status and errors
Selected range
Filename D:\Para llevar\Mekon Delta Erich Zann\Mekong Delta - The Music Of Erich Zann (Remastered).wav
Peak level 96.6 % Range quality 99.9 % Copy CRC 03090E36 Copy OK
No errors occurred
AccurateRip summary
Track 1 not present in databaseTrack 2 not present in databaseTrack 3 not present in databaseTrack 4 not present in databaseTrack 5 not present in databaseTrack 6 not present in databaseTrack 7 not present in databaseTrack 8 not present in databaseTrack 9 not present in databaseTrack 10 not present in database
None of the tracks are present in the AccurateRip database
End of status report

1989 - The Principle Of Doubt+Toccata [1990, TECP-25494, Japan]

01. A Question Of Trust (3:28)
02. The Principle Of Doubt (4:48)
03. Once I Believed (4:29)
04. Ever Since Time Began (4:25)
05. Curse Of Reality (4:29)
06. Twilight Zone (3:29)
07. Shades Of Doom (4:04)
08. The Jester (5:52)
09. El Colibri (1:16)
10. No Friend Of Mine (3:46)
11. Toocata (6:01)
12. Black Betty (2:52)
13. Interluium (2nd Version) (2:08)

Лог создания рипа

Exact Audio Copy V0.99 prebeta 5 from 4. May 2009
Archivo Log de extracciones desde 17. Febrero 2012, 13:26
Mekong Delta / The Principle of Doubt + Toccata - Japan (TECP-25494)
Usar unidad : HL-DT-STDVDRAM GH22NS70 Adapter: 0 ID: 0
Modo de Lectura : SeguroUtilizar Corriente Exacta : SнDescartar Audio cachй : SнUtilizar los punteros C2 : No
Correcciуn de Desplazamiento de Lectura : 667Sobreleer tanto en Lead-In como en Lead-Out : NoRellenar las muestras faltantes con silencios : SнEliminar silencios inicial y final : NoSe han usado muestras nulas en los cбlculos CRC : SнInterfaz usada : Interfaz propio de Win32 para Windowns NT y 2000
Formato de Salida utilizado : Compresor sin pйrdida Monkey's AudioBitrate seleccionado : High Lossless CompressionCalidad : AltaAсadir Etiqueta ID3 : SнCompresor de linea de comandos : C:\Program Files (x86)\Exact Audio Copy\MAC.exe
TOC del CD extraido
Pista | Inicio | Duraciуn | Sector inicial | Sector final ------------------------------------------------------------- 1 | 0:00.00 | 3:27.52 | 0 | 15576 2 | 3:27.52 | 4:48.10 | 15577 | 37186 3 | 8:15.62 | 4:29.30 | 37187 | 57391 4 | 12:45.17 | 4:25.08 | 57392 | 77274 5 | 17:10.25 | 4:29.00 | 77275 | 97449 6 | 21:39.25 | 3:28.45 | 97450 | 113094 7 | 25:07.70 | 4:04.35 | 113095 | 131429 8 | 29:12.30 | 5:51.72 | 131430 | 157826 9 | 35:04.27 | 1:16.13 | 157827 | 163539 10 | 36:20.40 | 3:46.30 | 163540 | 180519 11 | 40:06.70 | 6:00.67 | 180520 | 207586 12 | 46:07.62 | 2:52.10 | 207587 | 220496 13 | 48:59.72 | 2:07.40 | 220497 | 230061
Gama de estados y errores
Seleccionar gama
Nombre de Archivo E:\Mъsica\EAC\Mekong Delta\The Principle Of Doubt - Toccata\Mekong Delta - The Principle of Doubt + Toccata - Japan (TECP-25494).wav
Nivel Pico 100.0 % Gama de Calidad 100.0 % Test CRC 091DCA8A Copiar CRC 091DCA8A Copia OK
Sin Errores
Resumen AccurateRip
Pista 1 extraido de modo preciso (nivel de confianza 1) [ADB91365]Pista 2 extraido de modo preciso (nivel de confianza 1) [10373A34]Pista 3 extraido de modo preciso (nivel de confianza 1) [D5516AE6]Pista 4 extraido de modo preciso (nivel de confianza 1) [18760368]Pista 5 extraido de modo preciso (nivel de confianza 1) [48C7DA41]Pista 6 extraido de modo preciso (nivel de confianza 1) [3DBDCC6E]Pista 7 extraido de modo preciso (nivel de confianza 1) [92845159]Pista 8 extraido de modo preciso (nivel de confianza 1) [A00CEC8D]Pista 9 extraido de modo preciso (nivel de confianza 1) [5F08452E]Pista 10 extraido de modo preciso (nivel de confianza 1) [3CC83197]Pista 11 extraido de modo preciso (nivel de confianza 1) [A742ADA0]Pista 12 extraido de modo preciso (nivel de confianza 1) [0A2E62C7]Pista 13 extraido de modo preciso (nivel de confianza 1) [42C62F59]
Todas las pistas extraidas de modo preciso
Final del Informe

1989 - The Principle Of Doubt [2006, Remastered MYST CD 004, Russia]

01. A Question Of Trust (3:34)
02. The Principle Of Doubt (4:53)
03. Once I Believed (4:32)
04. Ever Since Time Began (4:36)
05. Curse Of Reality (4:40)
06. Twilight Zone (3:32)
07. Shades Of Doom (4:20)
08. The Jester (5:55)
09. El Colibri (1:21)
10. No Friend Of Mine (3:48)

Лог создания рипа

Exact Audio Copy V1.0 beta 1 from 15. November 2010
EAC extraction logfile from 17. January 2011, 12:56
Mekong Delta / The Principle Of Doubt
Used drive : PIONEER DVD-RW DVR-112D Adapter: 1 ID: 0
Read mode : SecureUtilize accurate stream : YesDefeat audio cache : YesMake use of C2 pointers : No
Read offset correction : 48Overread into Lead-In and Lead-Out : NoFill up missing offset samples with silence : YesDelete leading and trailing silent blocks : NoNull samples used in CRC calculations : YesUsed interface : Installed external ASPI interface
Used output format : User Defined EncoderSelected bitrate : 1024 kBit/sQuality : HighAdd ID3 tag : NoCommand line compressor : C:\Program Files\Exact Audio Copy\FLAC\FLAC.EXEAdditional command line options : -8 -V %s
TOC of the extracted CD
Track | Start | Length | Start sector | End sector --------------------------------------------------------- 1 | 0:00.00 | 3:34.36 | 0 | 16085 2 | 3:34.36 | 4:53.29 | 16086 | 38089 3 | 8:27.65 | 4:31.70 | 38090 | 58484 4 | 12:59.60 | 4:35.58 | 58485 | 79167 5 | 17:35.43 | 4:39.66 | 79168 | 100158 6 | 22:15.34 | 3:31.41 | 100159 | 116024 7 | 25:47.00 | 4:19.51 | 116025 | 135500 8 | 30:06.51 | 5:55.20 | 135501 | 162145 9 | 36:01.71 | 1:20.50 | 162146 | 168195 10 | 37:22.46 | 3:47.59 | 168196 | 185279
Range status and errors
Selected range
Filename C:\CDRip by Deminbek\Mekong Delta - The Principle Of Doubt [MYST CD 004].wav
Peak level 96.6 % Extraction speed 0.6 X Range quality 99.9 % Test CRC 52FA21E7 Copy CRC 52FA21E7 Copy OK
No errors occurred
AccurateRip summary
Track 1 accurately ripped (confidence 5) [1E656A03]Track 2 accurately ripped (confidence 5) [EA3D40DE]Track 3 accurately ripped (confidence 5) [DD7C0397]Track 4 accurately ripped (confidence 5) [E301DA1B]Track 5 accurately ripped (confidence 5) [B2A912FB]Track 6 accurately ripped (confidence 5) [B1C3BD07]Track 7 accurately ripped (confidence 5) [A125E5C5]Track 8 accurately ripped (confidence 5) [303E764B]Track 9 accurately ripped (confidence 5) [54228D8E]Track 10 accurately ripped (confidence 5) [EF049BE8]
All tracks accurately ripped
End of status report
==== Log checksum 7C1F62A33A1E71335624FD3EFEF2EDBBD4B70FF2863FC83DAF7960553927867D ====

1990 - Dances Of Death [1991, TECP-25592, Japan]

01. Dances Of Death (19:11)
02. Transgressor (3:18)
03. True Believers (5:25)
04. Night On A Bare Mountain (10:24)

Лог создания рипа

X Lossless Decoder version 20100711 (120.5)
XLD extraction logfile from 2010-07-24 22:39:17 +0400
Mekong Delta / Dances Of Death
Used drive : PIONEER DVD-RW DVR-116D (revision 1.04)
Use cdparanoia mode : YES (CDParanoia III 10.2 engine)Disable audio cache : OK for the drive with cache less than 2750KBMake use of C2 pointers : NORead offset correction : 96Max retry count : 50Gap status : Analyzed, Appended
TOC of the extracted CD Track | Start | Length | Start sector | End sector --------------------------------------------------------- 1 | 00:00:00 | 19:11:05 | 0 | 86329 2 | 19:11:05 | 03:17:42 | 86330 | 101146 3 | 22:28:47 | 05:25:33 | 101147 | 125554 4 | 27:54:05 | 10:24:00 | 125555 | 172354
All Tracks Filename : /Users/igorgo/Desktop/ MEKONG DELTA -Daces_Of_Death/Dances Of Death.flac CRC32 hash (test run) : 15116588 CRC32 hash : 15116588 CRC32 hash (skip zero) : 6ED8094A Statistics Read error : 0 Skipped (treated as error) : 0 Edge jitter error (maybe fixed) : 0 Atom jitter error (maybe fixed) : 0 Drift error (maybe fixed) : 0 Dropped bytes error (maybe fixed) : 0 Duplicated bytes error (maybe fixed) : 0 Inconsistency in error sectors : 0
Track 01
Pre-gap length : 00:02:00
CRC32 hash (test run) : 8CCA9B22 CRC32 hash : 8CCA9B22 CRC32 hash (skip zero) : 0F33872A AccurateRip signature : E2B736C7 ->Accurately ripped! (confidence 2) Statistics Read error : 0 Skipped (treated as error) : 0 Edge jitter error (maybe fixed) : 0 Atom jitter error (maybe fixed) : 0 Drift error (maybe fixed) : 0 Dropped bytes error (maybe fixed) : 0 Duplicated bytes error (maybe fixed) : 0 Inconsistency in error sectors : 0
Track 02
Pre-gap length : 00:00:45
CRC32 hash (test run) : 5E17816D CRC32 hash : 5E17816D CRC32 hash (skip zero) : 4DBAC546 AccurateRip signature : 485A8B8E ->Accurately ripped! (confidence 2) Statistics Read error : 0 Skipped (treated as error) : 0 Edge jitter error (maybe fixed) : 0 Atom jitter error (maybe fixed) : 0 Drift error (maybe fixed) : 0 Dropped bytes error (maybe fixed) : 0 Duplicated bytes error (maybe fixed) : 0 Inconsistency in error sectors : 0
Track 03
CRC32 hash (test run) : C4CC02D7 CRC32 hash : C4CC02D7 CRC32 hash (skip zero) : 521DBE9F AccurateRip signature : EECB60CB ->Accurately ripped! (confidence 2) Statistics Read error : 0 Skipped (treated as error) : 0 Edge jitter error (maybe fixed) : 0 Atom jitter error (maybe fixed) : 0 Drift error (maybe fixed) : 0 Dropped bytes error (maybe fixed) : 0 Duplicated bytes error (maybe fixed) : 0 Inconsistency in error sectors : 0
Track 04
CRC32 hash (test run) : 74A9BEC1 CRC32 hash : 74A9BEC1 CRC32 hash (skip zero) : A2347223 AccurateRip signature : 12C065A0 ->Accurately ripped! (confidence 2) Statistics Read error : 0 Skipped (treated as error) : 0 Edge jitter error (maybe fixed) : 0 Atom jitter error (maybe fixed) : 0 Drift error (maybe fixed) : 0 Dropped bytes error (maybe fixed) : 0 Duplicated bytes error (maybe fixed) : 0 Inconsistency in error sectors : 0
No errors occurred
End of status report

1990 - Dances Of Death [2006, Remastered MYST CD 005, Russia]

01. Dances Of Death (19:45)
02. Transgressor (3:25)
03. True Believers (5:33)
04. Night On A Bare Mountain (10:42)
05. The Gnom (2:55)

Лог создания рипа

Exact Audio Copy V1.0 beta 1 from 15. November 2010
EAC extraction logfile from 17. January 2011, 11:36
Mekong Delta / Dances Of Death
Used drive : PIONEER DVD-RW DVR-112D Adapter: 1 ID: 0
Read mode : SecureUtilize accurate stream : YesDefeat audio cache : YesMake use of C2 pointers : No
Read offset correction : 48Overread into Lead-In and Lead-Out : NoFill up missing offset samples with silence : YesDelete leading and trailing silent blocks : NoNull samples used in CRC calculations : YesUsed interface : Installed external ASPI interface
Used output format : User Defined EncoderSelected bitrate : 1024 kBit/sQuality : HighAdd ID3 tag : NoCommand line compressor : C:\Program Files\Exact Audio Copy\FLAC\FLAC.EXEAdditional command line options : -8 -V %s
TOC of the extracted CD
Track | Start | Length | Start sector | End sector --------------------------------------------------------- 1 | 0:00.00 | 19:44.56 | 0 | 88855 2 | 19:44.56 | 3:24.49 | 88856 | 104204 3 | 23:09.30 | 5:32.57 | 104205 | 129161 4 | 28:42.12 | 10:42.28 | 129162 | 177339 5 | 39:24.40 | 2:54.70 | 177340 | 190459
Range status and errors
Selected range
Filename C:\CDRip by Deminbek\Mekong Delta - Dances Of Death [MYST CD 005].wav
Peak level 96.6 % Extraction speed 0.4 X Range quality 99.9 % Test CRC 2225C2C6 Copy CRC 2225C2C6 Copy OK
No errors occurred
AccurateRip summary
Track 1 accurately ripped (confidence 6) [29F86FB0]Track 2 accurately ripped (confidence 6) [ED52EF75]Track 3 accurately ripped (confidence 6) [DB1739CB]Track 4 accurately ripped (confidence 6) [1C68ECCA]Track 5 accurately ripped (confidence 5) [685CF8A7]
All tracks accurately ripped
End of status report
==== Log checksum 2AFEE4569888A2724FBCA081218AF37C5F32023039F4B334D2EF060ED5F70ACF ====

1991 - Live At An Exhibition [1992, TECX-25373, Japan]

01. The Cure (4:08)
02. Transgression (3:18)
03. True Believers (5:48)
04. Night On A Bare Mountain (5:51)
05. Memories of Tomorrow (4:51)
06. Hut of Baba Yaga (4:32)
07. Hero's Grief (6:05)
08. True Lies (4:40)
09. Toccata (8:19)

Лог создания рипа

Exact Audio Copy V1.0 beta 3 from 29. August 2011
EAC extraction logfile from 18. January 2012, 23:17
Mekong Delta / Live At An Exhibition (Teichiku Records, Japan, TECX-25373)
Used drive : PLEXTOR DVDR PX-880SA Adapter: 4 ID: 0
Read mode : SecureUtilize accurate stream : YesDefeat audio cache : YesMake use of C2 pointers : No
Read offset correction : 6Overread into Lead-In and Lead-Out : NoFill up missing offset samples with silence : YesDelete leading and trailing silent blocks : NoNull samples used in CRC calculations : YesUsed interface : Native Win32 interface for Win NT & 2000
Used output format : User Defined EncoderSelected bitrate : 1024 kBit/sQuality : HighAdd ID3 tag : NoCommand line compressor : C:\Program Files\FLAC\flac.exeAdditional command line options : -8 -V %source% -o %dest%
TOC of the extracted CD
Track | Start | Length | Start sector | End sector --------------------------------------------------------- 1 | 0:00.00 | 4:07.53 | 0 | 18577 2 | 4:07.53 | 3:18.07 | 18578 | 33434 3 | 7:25.60 | 5:47.63 | 33435 | 59522 4 | 13:13.48 | 5:50.50 | 59523 | 85822 5 | 19:04.23 | 4:51.02 | 85823 | 107649 6 | 23:55.25 | 4:32.10 | 107650 | 128059 7 | 28:27.35 | 6:04.58 | 128060 | 155417 8 | 34:32.18 | 4:39.40 | 155418 | 176382 9 | 39:11.58 | 8:18.42 | 176383 | 213774
Range status and errors
Selected range
Filename C:\Mysterons [Skull_of_Sheeps]\Mekong Delta [1991] Live At An Exhibition (Japan, Teichiku Records, TECX-25373)\Mekong Delta - Live At An Exhibition (Teichiku Records, Japan, TECX-25373).wav
Peak level 100.0 % Extraction speed 1.5 X Range quality 100.0 % Test CRC E72F935B Copy CRC E72F935B Copy OK
No errors occurred
AccurateRip summary
Track 1 not present in databaseTrack 2 not present in databaseTrack 3 not present in databaseTrack 4 not present in databaseTrack 5 not present in databaseTrack 6 not present in databaseTrack 7 not present in databaseTrack 8 not present in databaseTrack 9 not present in database
None of the tracks are present in the AccurateRip database
End of status report
---- CUETools DB Plugin V2.1.3
[CTDB TOCID: auXJDO1tdBsKcS3CrdOwaEtNyig-] disk not present in database, Submit result: auXJDO1tdBsKcS3CrdOwaEtNyig- has been uploaded

1991 - Live At An Exhibition [2006, Remastered MYST CD 040, Russia]

01. The Cure (live) (4:07)
02. Transgression (live) (3:18)
03. True Believers (live) (5:52)
04. Night On A Bare Mountain (live) (5:47)
05. Memories Of Tomorrow (live) (4:48)
06. Hut Of Baba Yaga (live) (5:08)
07. Heroe's Grief (live) (5:26)
08. True Lies (live) (4:40)
09. Toccata (live) (8:16)

Лог создания рипа

Exact Audio Copy V1.0 beta 1 from 15. November 2010
EAC extraction logfile from 17. January 2011, 12:26
Mekong Delta / Live At An Exhibition
Used drive : PIONEER DVD-RW DVR-112D Adapter: 1 ID: 0
Read mode : SecureUtilize accurate stream : YesDefeat audio cache : YesMake use of C2 pointers : No
Read offset correction : 48Overread into Lead-In and Lead-Out : NoFill up missing offset samples with silence : YesDelete leading and trailing silent blocks : NoNull samples used in CRC calculations : YesUsed interface : Installed external ASPI interface
Used output format : User Defined EncoderSelected bitrate : 1024 kBit/sQuality : HighAdd ID3 tag : NoCommand line compressor : C:\Program Files\Exact Audio Copy\FLAC\FLAC.EXEAdditional command line options : -8 -V %s
TOC of the extracted CD
Track | Start | Length | Start sector | End sector --------------------------------------------------------- 1 | 0:00.00 | 4:07.13 | 0 | 18537 2 | 4:07.13 | 3:18.07 | 18538 | 33394 3 | 7:25.20 | 5:51.47 | 33395 | 59766 4 | 13:16.67 | 5:46.59 | 59767 | 85775 5 | 19:03.51 | 4:48.33 | 85776 | 107408 6 | 23:52.09 | 5:07.48 | 107409 | 130481 7 | 28:59.57 | 5:25.61 | 130482 | 154917 8 | 34:25.43 | 4:40.05 | 154918 | 175922 9 | 39:05.48 | 8:15.57 | 175923 | 213104
Range status and errors
Selected range
Filename C:\CDRip by Deminbek\Mekong Delta - Live At An Exhibition [MYST CD 040].wav
Peak level 100.0 % Extraction speed 1.2 X Range quality 100.0 % Test CRC 76FF46A6 Copy CRC 76FF46A6 Copy OK
No errors occurred
AccurateRip summary
Track 1 accurately ripped (confidence 1) [B336E439]Track 2 accurately ripped (confidence 1) [30604E8B]Track 3 accurately ripped (confidence 1) [31008F61]Track 4 accurately ripped (confidence 1) [5AE28661]Track 5 accurately ripped (confidence 1) [BBA29788]Track 6 accurately ripped (confidence 1) [54A798CB]Track 7 accurately ripped (confidence 1) [40177856]Track 8 accurately ripped (confidence 1) [1C15DB6C]Track 9 accurately ripped (confidence 1) [E5E9E00F]
All tracks accurately ripped
End of status report
==== Log checksum AB1A47613EDF617292C50B678CD844967E953C28645ACC00702591BE3001BEAE ====

1992 - Kaleidoscope [1993, TECX-25459, Japan]

01. Innocent ? (5:11)
02. Sphere Eclipse (6:07)
03. Dance On A Volcano (5:45)
04. Dreaming (3:46)
05. Heartbeat (6:46)
06. Shadow Walker (6:35)
07. Sabre Dance (2:46)
08. Misunderstanding (5:03)
09. About Science (6:21)

Лог создания рипа

Exact Audio Copy V0.99 prebeta 5 from 4. May 2009
Archivo Log de extracciones desde 14. Noviembre 2013, 18:24
MEKONG DELTA / Kaleidoscope - Japan (TECX-25459)
Usar unidad : HL-DT-STDVDRAM GH22NS70 Adapter: 0 ID: 0
Modo de Lectura : SeguroUtilizar Corriente Exacta : SнDescartar Audio cachй : SнUtilizar los punteros C2 : No
Correcciуn de Desplazamiento de Lectura : 667Sobreleer tanto en Lead-In como en Lead-Out : NoRellenar las muestras faltantes con silencios : SнEliminar silencios inicial y final : NoSe han usado muestras nulas en los cбlculos CRC : SнInterfaz usada : Interfaz propio de Win32 para Windowns NT y 2000
Formato de Salida utilizado : Compresor definido por el usuarioBitrate seleccionado : 32 kBit/sCalidad : AltaAсadir Etiqueta ID3 : NoCompresor de linea de comandos : C:\Program Files (x86)\Exact Audio Copy\Flac\flac.exeOpciones adicionales en lнnea de comandos : -6 -V %s
TOC del CD extraido
Pista | Inicio | Duraciуn | Sector inicial | Sector final ------------------------------------------------------------- 1 | 0:00.00 | 5:11.25 | 0 | 23349 2 | 5:11.25 | 6:07.22 | 23350 | 50896 3 | 11:18.47 | 5:44.73 | 50897 | 76769 4 | 17:03.45 | 3:45.45 | 76770 | 93689 5 | 20:49.15 | 6:45.62 | 93690 | 124126 6 | 27:35.02 | 6:34.73 | 124127 | 153749 7 | 34:10.00 | 2:46.22 | 153750 | 166221 8 | 36:56.22 | 5:03.05 | 166222 | 188951 9 | 41:59.27 | 6:21.03 | 188952 | 217529
Gama de estados y errores
Seleccionar gama
Nombre de Archivo E:\Mъsica\EAC\Mekong Delta\MEKONG DELTA - Kaleidoscope - Japan (TECX-25459).wav
Nivel Pico 100.0 % Gama de Calidad 100.0 % Test CRC 8D88872C Copiar CRC 8D88872C Copia OK
Sin Errores
Resumen AccurateRip
Pista 1 extraido de modo preciso (nivel de confianza 3) [642D3933]Pista 2 extraido de modo preciso (nivel de confianza 3) [B101E49C]Pista 3 extraido de modo preciso (nivel de confianza 3) [C93F20B5]Pista 4 extraido de modo preciso (nivel de confianza 3) [564702F9]Pista 5 extraido de modo preciso (nivel de confianza 3) [F179165D]Pista 6 extraido de modo preciso (nivel de confianza 3) [DE02ECF4]Pista 7 extraido de modo preciso (nivel de confianza 3) [83026443]Pista 8 extraido de modo preciso (nivel de confianza 3) [6B2FA18F]Pista 9 extraido de modo preciso (nivel de confianza 3) [DC838657]
Todas las pistas extraidas de modo preciso
Final del Informe

1992 - Kaleidoscope [2006, Remastered MYST CD 006, Russia]

01. Innocent? (5:11)
02. Sphere Eclipse (6:07)
03. Dance On A Volcano (5:46)
04. Dreaming (3:46)
05. Heartbeat (6:46)
06. Shadow Walker (6:36)
07. Sabre Dance (2:47)
08. Misunderstanding (5:04)
09. About Science (6:21)

Лог создания рипа

Exact Audio Copy V1.0 beta 1 from 15. November 2010
EAC extraction logfile from 17. January 2011, 13:32
Mekong Delta / Kaleidoscope
Used drive : PIONEER DVD-RW DVR-112D Adapter: 1 ID: 0
Read mode : SecureUtilize accurate stream : YesDefeat audio cache : YesMake use of C2 pointers : No
Read offset correction : 48Overread into Lead-In and Lead-Out : NoFill up missing offset samples with silence : YesDelete leading and trailing silent blocks : NoNull samples used in CRC calculations : YesUsed interface : Installed external ASPI interface
Used output format : User Defined EncoderSelected bitrate : 1024 kBit/sQuality : HighAdd ID3 tag : NoCommand line compressor : C:\Program Files\Exact Audio Copy\FLAC\FLAC.EXEAdditional command line options : -8 -V %s
TOC of the extracted CD
Track | Start | Length | Start sector | End sector --------------------------------------------------------- 1 | 0:00.00 | 5:11.02 | 0 | 23326 2 | 5:11.02 | 6:07.03 | 23327 | 50854 3 | 11:18.05 | 5:45.57 | 50855 | 76786 4 | 17:03.62 | 3:45.49 | 76787 | 93710 5 | 20:49.36 | 6:45.57 | 93711 | 124142 6 | 27:35.18 | 6:35.65 | 124143 | 153832 7 | 34:11.08 | 2:47.11 | 153833 | 166368 8 | 36:58.19 | 5:03.56 | 166369 | 189149 9 | 42:02.00 | 6:21.09 | 189150 | 217733
Range status and errors
Selected range
Filename C:\CDRip by Deminbek\Mekong Delta - Kaleidoscope [MYST CD 006].wav
Peak level 96.6 % Extraction speed 0.9 X Range quality 100.0 % Test CRC E587F2CB Copy CRC E587F2CB Copy OK
No errors occurred
AccurateRip summary
Track 1 accurately ripped (confidence 5) [24EB557F]Track 2 accurately ripped (confidence 6) [66D874E7]Track 3 accurately ripped (confidence 5) [9905FCFA]Track 4 accurately ripped (confidence 5) [48153D81]Track 5 accurately ripped (confidence 5) [55EFBD47]Track 6 accurately ripped (confidence 5) [0CDDDA8D]Track 7 accurately ripped (confidence 6) [AC044522]Track 8 accurately ripped (confidence 5) [BB7F9CDD]Track 9 accurately ripped (confidence 5) [FA24EDEF]
All tracks accurately ripped
End of status report
==== Log checksum FA156E7378A3F3734EE0A7CBA7C93D64CAB36776D4FFEFFB8B8CD52E3165103D ====

1993 - Classics [2006, Remastered MYST 041, Russia]

01. Interludium/Beginning For Mercy (Part I) (3:10)
02. Toccata (6:03)
03. Twilight Zone (3:29)
04. The Gnome (2:55)
05. The Hut Of Baba Yaga (4:12)
06. Night On A Bare Mountain (10:42)
07. Interludium (Part II) (2:07)
08. El Colibri (1:19)
09. Introduction (1:09)
10. Sabre Dance (2:45)
11. Dance (2:37)
12. Postludium (2:31)
13. Promenade (1:24)
14. The Heroic Gate (In The Old Capital Of Kiev) (5:47)

Лог создания рипа

Exact Audio Copy V1.0 beta 1 from 15. November 2010
EAC extraction logfile from 17. January 2011, 11:58
Mekong Delta / Classics
Used drive : PIONEER DVD-RW DVR-112D Adapter: 1 ID: 0
Read mode : SecureUtilize accurate stream : YesDefeat audio cache : YesMake use of C2 pointers : No
Read offset correction : 48Overread into Lead-In and Lead-Out : NoFill up missing offset samples with silence : YesDelete leading and trailing silent blocks : NoNull samples used in CRC calculations : YesUsed interface : Installed external ASPI interface
Used output format : User Defined EncoderSelected bitrate : 1024 kBit/sQuality : HighAdd ID3 tag : NoCommand line compressor : C:\Program Files\Exact Audio Copy\FLAC\FLAC.EXEAdditional command line options : -8 -V %s
TOC of the extracted CD
Track | Start | Length | Start sector | End sector --------------------------------------------------------- 1 | 0:00.00 | 3:10.02 | 0 | 14251 2 | 3:10.02 | 6:03.06 | 14252 | 41482 3 | 9:13.08 | 3:28.61 | 41483 | 57143 4 | 12:41.69 | 2:54.68 | 57144 | 70261 5 | 15:36.62 | 4:12.19 | 70262 | 89180 6 | 19:49.06 | 10:42.25 | 89181 | 137355 7 | 30:31.31 | 2:07.31 | 137356 | 146911 8 | 32:38.62 | 1:18.49 | 146912 | 152810 9 | 33:57.36 | 1:09.15 | 152811 | 158000 10 | 35:06.51 | 2:45.27 | 158001 | 170402 11 | 37:52.03 | 2:37.08 | 170403 | 182185 12 | 40:29.11 | 2:30.42 | 182186 | 193477 13 | 42:59.53 | 1:24.14 | 193478 | 199791 14 | 44:23.67 | 5:47.12 | 199792 | 225828
Range status and errors
Selected range
Filename C:\CDRip by Deminbek\Mekong Delta - Classics [MYST 041].wav
Peak level 100.0 % Extraction speed 0.7 X Range quality 99.9 % Test CRC 965CDD27 Copy CRC 965CDD27 Copy OK
No errors occurred
AccurateRip summary
Track 1 accurately ripped (confidence 4) [6C014F26]Track 2 accurately ripped (confidence 4) [7362487C]Track 3 accurately ripped (confidence 4) [3977C002]Track 4 accurately ripped (confidence 4) [8C07C287]Track 5 accurately ripped (confidence 4) [73904B92]Track 6 accurately ripped (confidence 4) [076D52BB]Track 7 accurately ripped (confidence 4) [2E6F41CC]Track 8 accurately ripped (confidence 4) [9B3B7C93]Track 9 accurately ripped (confidence 4) [BF3BFD81]Track 10 accurately ripped (confidence 4) [75B56EF4]Track 11 accurately ripped (confidence 4) [110F4EB7]Track 12 accurately ripped (confidence 4) [AA0D5134]Track 13 accurately ripped (confidence 4) [A1EC79FF]Track 14 accurately ripped (confidence 3) [769903B2]
All tracks accurately ripped
End of status report
==== Log checksum 1CD938CA3FC589707D85F1F42EA849A4B3F682BABB1E5B78D0B308ABEC2E114B ====

1994 - Visions Fugitive [2006, Remastered MYST CD 007, Russia]

01. Them (5:06)
02. Imagination (4:47)
03. Suite For Group And Orchestra (Introduction) (2:11)
04. Preludium (5:07)
05. Allegro (4:23)
06. Dance (2:35)
07. Fugue (4:25)
08. Postludium (2:32)
09. The Healer (7:42)
10. Days Of Sorrow (5:09)

Лог создания рипа

Exact Audio Copy V1.0 beta 1 from 15. November 2010
EAC extraction logfile from 17. January 2011, 11:19
Mekong Delta / Visions Fugitive
Used drive : PIONEER DVD-RW DVR-112D Adapter: 1 ID: 0
Read mode : SecureUtilize accurate stream : YesDefeat audio cache : YesMake use of C2 pointers : No
Read offset correction : 48Overread into Lead-In and Lead-Out : NoFill up missing offset samples with silence : YesDelete leading and trailing silent blocks : NoNull samples used in CRC calculations : YesUsed interface : Installed external ASPI interface
Used output format : User Defined EncoderSelected bitrate : 768 kBit/sQuality : HighAdd ID3 tag : NoCommand line compressor : C:\Program Files\Exact Audio Copy\FLAC\FLAC.EXEAdditional command line options : -8 -V %s
TOC of the extracted CD
Track | Start | Length | Start sector | End sector --------------------------------------------------------- 1 | 0:00.00 | 5:05.41 | 0 | 22915 2 | 5:05.41 | 4:47.02 | 22916 | 44442 3 | 9:52.43 | 2:11.02 | 44443 | 54269 4 | 12:03.45 | 5:06.50 | 54270 | 77269 5 | 17:10.20 | 4:22.60 | 77270 | 96979 6 | 21:33.05 | 2:34.46 | 96980 | 108575 7 | 24:07.51 | 4:25.16 | 108576 | 128466 8 | 28:32.67 | 2:31.38 | 128467 | 139829 9 | 31:04.30 | 7:42.20 | 139830 | 174499 10 | 38:46.50 | 5:08.39 | 174500 | 197638
Range status and errors
Selected range
Filename C:\CDRip by Deminbek\Mekong Delta - Visions Fugitive [MYST CD 007].wav
Peak level 99.9 % Extraction speed 0.8 X Range quality 100.0 % Test CRC B4119A69 Copy CRC B4119A69 Copy OK
No errors occurred
AccurateRip summary
Track 1 accurately ripped (confidence 5) [869BFC38]Track 2 accurately ripped (confidence 5) [24478F6F]Track 3 accurately ripped (confidence 5) [0C4BAFC6]Track 4 accurately ripped (confidence 5) [0AF5BA42]Track 5 accurately ripped (confidence 5) [AE4531D5]Track 6 accurately ripped (confidence 5) [31A7579C]Track 7 accurately ripped (confidence 5) [5593527E]Track 8 accurately ripped (confidence 5) [DF4A24E7]Track 9 accurately ripped (confidence 5) [6085C640]Track 10 accurately ripped (confidence 5) [74F05B4A]
All tracks accurately ripped
End of status report
==== Log checksum 442C5F2AC931339F0674089019CAD83EC6D6BC499CBFFC95DA87DDF8E403768B ====

1996 - Pictures At An Exhibition [TECW-25413, Japan]

01. Promenade (1:25)
02. Gnomus (2:44)
03. Interludium (0:43)
04. Il Vecchio Castello (3:55)
05. Interludium (0:29)
06. Tuileries (Dispute D'Enfants Apres Jeux) (1:54)
07. Bydtlo (3:02)
08. Interludium (0:40)
09. Ballet Of The Unhatched Chicks (1:22)
10. 'Samuel' Goldenberg And 'Schmuyle' (2:00)
11. Promenade (1:23)
12. Limoges: Le Marche (La Grand Nouvelle) (3:03)
13. Catacombae (Sepulcrum Romanum) (1:42)
14. Lingua Mortis (1:58)
15. The Hut On Chicken's Legs (3:26)
16. The Heroic Gate (In The Old Capital Of Kiev) (5:52)
17. Promenade (1:23)
18. Gnomus (2:44)
19. Interludium (0:43)
20. Il Vecchio Castello (3:55)
21. Interludium (0:30)
22. Tuileries (Dispute D'Enfants Apres Jeux) (1:53)
23. Bydtlo (3:02)
24. Interludium (0:41)
25. Ballet Of The Unhatched Chicks (1:23)
26. 'Samuel' Goldenberg And 'Schmuyle' (2:00)
27. Promenade (1:27)
28. Limoges: Le Marche (La Grand Nouvelle) (3:06)
29. Catacombae (Sepulcrum Romanum) (1:41)
30. Lingua Mortis (1:59)
31. The Hut On Chicken's Legs (3:27)
32. The Heroic Gate (In The Old Capital Of Kiev) (5:48)

Лог создания рипа

X Lossless Decoder version 20111214 (138.1)
XLD extraction logfile from 2012-01-12 16:49:21 +0300
Mekong Delta / Pictures At An Exhibition
Used drive : PIONEER DVD-RW DVR-118L (revision 1.02)
Ripper mode : CDParanoia III 10.2Disable audio cache : OK for the drive with a cache less than 2750KiBMake use of C2 pointers : NORead offset correction : 6Max retry count : 50Gap status : Analyzed, Appended
TOC of the extracted CD Track | Start | Length | Start sector | End sector --------------------------------------------------------- 1 | 00:00:00 | 01:24:53 | 0 | 6352 2 | 01:24:53 | 02:43:55 | 6353 | 18632 3 | 04:08:33 | 00:43:25 | 18633 | 21882 4 | 04:51:58 | 03:55:35 | 21883 | 39542 5 | 08:47:18 | 00:29:07 | 39543 | 41724 6 | 09:16:25 | 01:54:08 | 41725 | 50282 7 | 11:10:33 | 03:02:25 | 50283 | 63957 8 | 14:12:58 | 00:40:32 | 63958 | 66989 9 | 14:53:15 | 01:22:30 | 66990 | 73169 10 | 16:15:45 | 02:00:35 | 73170 | 82204 11 | 18:16:05 | 01:23:00 | 82205 | 88429 12 | 19:39:05 | 03:03:05 | 88430 | 102159 13 | 22:42:10 | 01:42:35 | 102160 | 109844 14 | 24:24:45 | 01:58:25 | 109845 | 118719 15 | 26:22:70 | 03:26:08 | 118720 | 134177 16 | 29:49:03 | 05:51:47 | 134178 | 160549 17 | 35:40:50 | 01:23:03 | 160550 | 166777 18 | 37:03:53 | 02:43:52 | 166778 | 179054 19 | 39:47:30 | 00:43:10 | 179055 | 182289 20 | 40:30:40 | 03:55:35 | 182290 | 199949 21 | 44:26:00 | 00:29:43 | 199950 | 202167 22 | 44:55:43 | 01:53:12 | 202168 | 210654 23 | 46:48:55 | 03:02:33 | 210655 | 224337 24 | 49:51:13 | 00:40:52 | 224338 | 227389 25 | 50:31:65 | 01:22:65 | 227390 | 233604 26 | 51:54:55 | 02:00:13 | 233605 | 242617 27 | 53:54:68 | 01:26:65 | 242618 | 249132 28 | 55:21:58 | 03:05:57 | 249133 | 263064 29 | 58:27:40 | 01:41:33 | 263065 | 270672 30 | 60:08:73 | 01:58:57 | 270673 | 279579 31 | 62:07:55 | 03:26:43 | 279580 | 295072 32 | 65:34:23 | 05:48:00 | 295073 | 321172
AccurateRip Summary Track 01 : OK (confidence 1) Track 02 : OK (confidence 1) Track 03 : OK (confidence 1) Track 04 : OK (confidence 1) Track 05 : OK (confidence 1) Track 06 : OK (confidence 1) Track 07 : OK (confidence 1) Track 08 : OK (confidence 1) Track 09 : OK (confidence 1) Track 10 : OK (confidence 1) Track 11 : OK (confidence 1) Track 12 : OK (confidence 1) Track 13 : OK (confidence 1) Track 14 : OK (confidence 1) Track 15 : OK (confidence 1) Track 16 : OK (confidence 1) Track 17 : OK (confidence 1) Track 18 : OK (confidence 1) Track 19 : OK (confidence 1) Track 20 : OK (confidence 1) Track 21 : OK (confidence 1) Track 22 : OK (confidence 1) Track 23 : OK (confidence 1) Track 24 : OK (confidence 1) Track 25 : OK (confidence 1) Track 26 : OK (confidence 1) Track 27 : OK (confidence 1) Track 28 : OK (confidence 1) Track 29 : OK (confidence 1) Track 30 : OK (confidence 1) Track 31 : OK (confidence 1) Track 32 : OK (confidence 1) ->All tracks accurately ripped.
All Tracks Filename : /Users/igorgo/Desktop/Mekong_Delta_Pictures_At_An_Exhibition_1997/Pictures At An Exhibition.flac CRC32 hash (test run) : 7D74A6A2 CRC32 hash : 7D74A6A2 CRC32 hash (skip zero) : 275D5FEC Statistics Read error : 0 Skipped (treated as error) : 0 Edge jitter error (maybe fixed) : 0 Atom jitter error (maybe fixed) : 0 Drift error (maybe fixed) : 0 Dropped bytes error (maybe fixed) : 0 Duplicated bytes error (maybe fixed) : 0 Inconsistency in error sectors : 0
Track 01 Pre-gap length : 00:02:00
CRC32 hash (test run) : B85D2875 CRC32 hash : B85D2875 CRC32 hash (skip zero) : 7DDA611C AccurateRip signature : FD17F830 ->Accurately ripped! (confidence 1) Statistics Read error : 0 Skipped (treated as error) : 0 Edge jitter error (maybe fixed) : 0 Atom jitter error (maybe fixed) : 0 Drift error (maybe fixed) : 0 Dropped bytes error (maybe fixed) : 0 Duplicated bytes error (maybe fixed) : 0 Inconsistency in error sectors : 0
Track 02
CRC32 hash (test run) : 4F142BDB CRC32 hash : 4F142BDB CRC32 hash (skip zero) : 0CFFED02 AccurateRip signature : 39646CC3 ->Accurately ripped! (confidence 1) Statistics Read error : 0 Skipped (treated as error) : 0 Edge jitter error (maybe fixed) : 0 Atom jitter error (maybe fixed) : 0 Drift error (maybe fixed) : 0 Dropped bytes error (maybe fixed) : 0 Duplicated bytes error (maybe fixed) : 0 Inconsistency in error sectors : 0
Track 03 Pre-gap length : 00:02:13
CRC32 hash (test run) : 3C6D674B CRC32 hash : 3C6D674B CRC32 hash (skip zero) : D2D2E23A AccurateRip signature : E0671485 ->Accurately ripped! (confidence 1) Statistics Read error : 0 Skipped (treated as error) : 0 Edge jitter error (maybe fixed) : 0 Atom jitter error (maybe fixed) : 0 Drift error (maybe fixed) : 0 Dropped bytes error (maybe fixed) : 0 Duplicated bytes error (maybe fixed) : 0 Inconsistency in error sectors : 0
Track 04 Pre-gap length : 00:01:43
CRC32 hash (test run) : ADB34CF4 CRC32 hash : ADB34CF4 CRC32 hash (skip zero) : 31C80D4E AccurateRip signature : 2E279511 ->Accurately ripped! (confidence 1) Statistics Read error : 0 Skipped (treated as error) : 0 Edge jitter error (maybe fixed) : 0 Atom jitter error (maybe fixed) : 0 Drift error (maybe fixed) : 0 Dropped bytes error (maybe fixed) : 0 Duplicated bytes error (maybe fixed) : 0 Inconsistency in error sectors : 0
Track 05 Pre-gap length : 00:03:18
CRC32 hash (test run) : 4CA31AD2 CRC32 hash : 4CA31AD2 CRC32 hash (skip zero) : 4486686B AccurateRip signature : 71E376B5 ->Accurately ripped! (confidence 1) Statistics Read error : 0 Skipped (treated as error) : 0 Edge jitter error (maybe fixed) : 0 Atom jitter error (maybe fixed) : 0 Drift error (maybe fixed) : 0 Dropped bytes error (maybe fixed) : 0 Duplicated bytes error (maybe fixed) : 0 Inconsistency in error sectors : 0
Track 06
CRC32 hash (test run) : EFD86215 CRC32 hash : EFD86215 CRC32 hash (skip zero) : AB1A1451 AccurateRip signature : A755527D ->Accurately ripped! (confidence 1) Statistics Read error : 0 Skipped (treated as error) : 0 Edge jitter error (maybe fixed) : 0 Atom jitter error (maybe fixed) : 0 Drift error (maybe fixed) : 0 Dropped bytes error (maybe fixed) : 0 Duplicated bytes error (maybe fixed) : 0 Inconsistency in error sectors : 0
Track 07 Pre-gap length : 00:01:05
CRC32 hash (test run) : 5E24E9D8 CRC32 hash : 5E24E9D8 CRC32 hash (skip zero) : 6579EB87 AccurateRip signature : BBA6D99B ->Accurately ripped! (confidence 1) Statistics Read error : 0 Skipped (treated as error) : 0 Edge jitter error (maybe fixed) : 0 Atom jitter error (maybe fixed) : 0 Drift error (maybe fixed) : 0 Dropped bytes error (maybe fixed) : 0 Duplicated bytes error (maybe fixed) : 0 Inconsistency in error sectors : 0
Track 08 Pre-gap length : 00:01:08
CRC32 hash (test run) : 6F88D791 CRC32 hash : 6F88D791 CRC32 hash (skip zero) : 22648C55 AccurateRip signature : AD6DD7FC ->Accurately ripped! (confidence 1) Statistics Read error : 0 Skipped (treated as error) : 0 Edge jitter error (maybe fixed) : 0 Atom jitter error (maybe fixed) : 0 Drift error (maybe fixed) : 0 Dropped bytes error (maybe fixed) : 0 Duplicated bytes error (maybe fixed) : 0 Inconsistency in error sectors : 0
Track 09
CRC32 hash (test run) : 212641D6 CRC32 hash : 212641D6 CRC32 hash (skip zero) : 22EC073B AccurateRip signature : ED630EEB ->Accurately ripped! (confidence 1) Statistics Read error : 0 Skipped (treated as error) : 0 Edge jitter error (maybe fixed) : 0 Atom jitter error (maybe fixed) : 0 Drift error (maybe fixed) : 0 Dropped bytes error (maybe fixed) : 0 Duplicated bytes error (maybe fixed) : 0 Inconsistency in error sectors : 0
Track 10
CRC32 hash (test run) : D829B2EF CRC32 hash : D829B2EF CRC32 hash (skip zero) : EB9CFACB AccurateRip signature : BA424CFE ->Accurately ripped! (confidence 1) Statistics Read error : 0 Skipped (treated as error) : 0 Edge jitter error (maybe fixed) : 0 Atom jitter error (maybe fixed) : 0 Drift error (maybe fixed) : 0 Dropped bytes error (maybe fixed) : 0 Duplicated bytes error (maybe fixed) : 0 Inconsistency in error sectors : 0
Track 11 Pre-gap length : 00:01:52
CRC32 hash (test run) : 654A42E4 CRC32 hash : 654A42E4 CRC32 hash (skip zero) : AFADBB5E AccurateRip signature : 52B997B8 ->Accurately ripped! (confidence 1) Statistics Read error : 0 Skipped (treated as error) : 0 Edge jitter error (maybe fixed) : 0 Atom jitter error (maybe fixed) : 0 Drift error (maybe fixed) : 0 Dropped bytes error (maybe fixed) : 0 Duplicated bytes error (maybe fixed) : 0 Inconsistency in error sectors : 0
Track 12
CRC32 hash (test run) : 4DD5A3D5 CRC32 hash : 4DD5A3D5 CRC32 hash (skip zero) : F9103E43 AccurateRip signature : CA08B7D0 ->Accurately ripped! (confidence 1) Statistics Read error : 0 Skipped (treated as error) : 0 Edge jitter error (maybe fixed) : 0 Atom jitter error (maybe fixed) : 0 Drift error (maybe fixed) : 0 Dropped bytes error (maybe fixed) : 0 Duplicated bytes error (maybe fixed) : 0 Inconsistency in error sectors : 0
Track 13
CRC32 hash (test run) : 6FEFC10B CRC32 hash : 6FEFC10B CRC32 hash (skip zero) : 7B160023 AccurateRip signature : 8C3EB901 ->Accurately ripped! (confidence 1) Statistics Read error : 0 Skipped (treated as error) : 0 Edge jitter error (maybe fixed) : 0 Atom jitter error (maybe fixed) : 0 Drift error (maybe fixed) : 0 Dropped bytes error (maybe fixed) : 0 Duplicated bytes error (maybe fixed) : 0 Inconsistency in error sectors : 0
Track 14
CRC32 hash (test run) : 192977F0 CRC32 hash : 192977F0 CRC32 hash (skip zero) : CF67D091 AccurateRip signature : B3E62F36 ->Accurately ripped! (confidence 1) Statistics Read error : 0 Skipped (treated as error) : 0 Edge jitter error (maybe fixed) : 0 Atom jitter error (maybe fixed) : 0 Drift error (maybe fixed) : 0 Dropped bytes error (maybe fixed) : 0 Duplicated bytes error (maybe fixed) : 0 Inconsistency in error sectors : 0
Track 15
CRC32 hash (test run) : 5786E234 CRC32 hash : 5786E234 CRC32 hash (skip zero) : 4881DCB9 AccurateRip signature : D4E3A446 ->Accurately ripped! (confidence 1) Statistics Read error : 0 Skipped (treated as error) : 0 Edge jitter error (maybe fixed) : 0 Atom jitter error (maybe fixed) : 0 Drift error (maybe fixed) : 0 Dropped bytes error (maybe fixed) : 0 Duplicated bytes error (maybe fixed) : 0 Inconsistency in error sectors : 0
Track 16
CRC32 hash (test run) : A3CE61AB CRC32 hash : A3CE61AB CRC32 hash (skip zero) : 4BABBC3E AccurateRip signature : F1073208 ->Accurately ripped! (confidence 1) Statistics Read error : 0 Skipped (treated as error) : 0 Edge jitter error (maybe fixed) : 0 Atom jitter error (maybe fixed) : 0 Drift error (maybe fixed) : 0 Dropped bytes error (maybe fixed) : 0 Duplicated bytes error (maybe fixed) : 0 Inconsistency in error sectors : 0
Track 17 Pre-gap length : 00:01:70
CRC32 hash (test run) : A8FA915E CRC32 hash : A8FA915E CRC32 hash (skip zero) : 63044B15 AccurateRip signature : 4DC60F66 ->Accurately ripped! (confidence 1) Statistics Read error : 0 Skipped (treated as error) : 0 Edge jitter error (maybe fixed) : 0 Atom jitter error (maybe fixed) : 0 Drift error (maybe fixed) : 0 Dropped bytes error (maybe fixed) : 0 Duplicated bytes error (maybe fixed) : 0 Inconsistency in error sectors : 0
Track 18
CRC32 hash (test run) : DA2A9DE4 CRC32 hash : DA2A9DE4 CRC32 hash (skip zero) : D54DBF0A AccurateRip signature : E155C873 ->Accurately ripped! (confidence 1) Statistics Read error : 0 Skipped (treated as error) : 0 Edge jitter error (maybe fixed) : 0 Atom jitter error (maybe fixed) : 0 Drift error (maybe fixed) : 0 Dropped bytes error (maybe fixed) : 0 Duplicated bytes error (maybe fixed) : 0 Inconsistency in error sectors : 0
Track 19
CRC32 hash (test run) : C38C42A8 CRC32 hash : C38C42A8 CRC32 hash (skip zero) : BC279EFF AccurateRip signature : 48D318C5 ->Accurately ripped! (confidence 1) Statistics Read error : 0 Skipped (treated as error) : 0 Edge jitter error (maybe fixed) : 0 Atom jitter error (maybe fixed) : 0 Drift error (maybe fixed) : 0 Dropped bytes error (maybe fixed) : 0 Duplicated bytes error (maybe fixed) : 0 Inconsistency in error sectors : 0
Track 20 Pre-gap length : 00:01:05
CRC32 hash (test run) : 8E4D44D3 CRC32 hash : 8E4D44D3 CRC32 hash (skip zero) : 6F279190 AccurateRip signature : 2FECECDC ->Accurately ripped! (confidence 1) Statistics Read error : 0 Skipped (treated as error) : 0 Edge jitter error (maybe fixed) : 0 Atom jitter error (maybe fixed) : 0 Drift error (maybe fixed) : 0 Dropped bytes error (maybe fixed) : 0 Duplicated bytes error (maybe fixed) : 0 Inconsistency in error sectors : 0
Track 21 Pre-gap length : 00:02:57
CRC32 hash (test run) : 6820D073 CRC32 hash : 6820D073 CRC32 hash (skip zero) : 4C470F13 AccurateRip signature : 1FE4BD8A ->Accurately ripped! (confidence 1) Statistics Read error : 0 Skipped (treated as error) : 0 Edge jitter error (maybe fixed) : 0 Atom jitter error (maybe fixed) : 0 Drift error (maybe fixed) : 0 Dropped bytes error (maybe fixed) : 0 Duplicated bytes error (maybe fixed) : 0 Inconsistency in error sectors : 0
Track 22
CRC32 hash (test run) : F89C61C7 CRC32 hash : F89C61C7 CRC32 hash (skip zero) : 8D76A54B AccurateRip signature : C937E774 ->Accurately ripped! (confidence 1) Statistics Read error : 0 Skipped (treated as error) : 0 Edge jitter error (maybe fixed) : 0 Atom jitter error (maybe fixed) : 0 Drift error (maybe fixed) : 0 Dropped bytes error (maybe fixed) : 0 Duplicated bytes error (maybe fixed) : 0 Inconsistency in error sectors : 0
Track 23
CRC32 hash (test run) : C848B5D0 CRC32 hash : C848B5D0 CRC32 hash (skip zero) : BB21EC29 AccurateRip signature : 1F427536 ->Accurately ripped! (confidence 1) Statistics Read error : 0 Skipped (treated as error) : 0 Edge jitter error (maybe fixed) : 0 Atom jitter error (maybe fixed) : 0 Drift error (maybe fixed) : 0 Dropped bytes error (maybe fixed) : 0 Duplicated bytes error (maybe fixed) : 0 Inconsistency in error sectors : 0
Track 24
CRC32 hash (test run) : A26AFB40 CRC32 hash : A26AFB40 CRC32 hash (skip zero) : 15BE9A6D AccurateRip signature : E0896E6C ->Accurately ripped! (confidence 1) Statistics Read error : 0 Skipped (treated as error) : 0 Edge jitter error (maybe fixed) : 0 Atom jitter error (maybe fixed) : 0 Drift error (maybe fixed) : 0 Dropped bytes error (maybe fixed) : 0 Duplicated bytes error (maybe fixed) : 0 Inconsistency in error sectors : 0
Track 25
CRC32 hash (test run) : 6D5BBBA1 CRC32 hash : 6D5BBBA1 CRC32 hash (skip zero) : 0F4B2941 AccurateRip signature : 36C924C9 ->Accurately ripped! (confidence 1) Statistics Read error : 0 Skipped (treated as error) : 0 Edge jitter error (maybe fixed) : 0 Atom jitter error (maybe fixed) : 0 Drift error (maybe fixed) : 0 Dropped bytes error (maybe fixed) : 0 Duplicated bytes error (maybe fixed) : 0 Inconsistency in error sectors : 0
Track 26
CRC32 hash (test run) : 201DC54B CRC32 hash : 201DC54B CRC32 hash (skip zero) : B8C578B4 AccurateRip signature : 6BB7CF0A ->Accurately ripped! (confidence 1) Statistics Read error : 0 Skipped (treated as error) : 0 Edge jitter error (maybe fixed) : 0 Atom jitter error (maybe fixed) : 0 Drift error (maybe fixed) : 0 Dropped bytes error (maybe fixed) : 0 Duplicated bytes error (maybe fixed) : 0 Inconsistency in error sectors : 0
Track 27 Pre-gap length : 00:01:65
CRC32 hash (test run) : 2A440E6E CRC32 hash : 2A440E6E CRC32 hash (skip zero) : 9286015C AccurateRip signature : 4D66A3F2 ->Accurately ripped! (confidence 1) Statistics Read error : 0 Skipped (treated as error) : 0 Edge jitter error (maybe fixed) : 0 Atom jitter error (maybe fixed) : 0 Drift error (maybe fixed) : 0 Dropped bytes error (maybe fixed) : 0 Duplicated bytes error (maybe fixed) : 0 Inconsistency in error sectors : 0
Track 28 Pre-gap length : 00:01:18
CRC32 hash (test run) : DE817E7A CRC32 hash : DE817E7A CRC32 hash (skip zero) : E73A2C12 AccurateRip signature : BB43623C ->Accurately ripped! (confidence 1) Statistics Read error : 0 Skipped (treated as error) : 0 Edge jitter error (maybe fixed) : 0 Atom jitter error (maybe fixed) : 0 Drift error (maybe fixed) : 0 Dropped bytes error (maybe fixed) : 0 Duplicated bytes error (maybe fixed) : 0 Inconsistency in error sectors : 0
Track 29
CRC32 hash (test run) : E775BAAB CRC32 hash : E775BAAB CRC32 hash (skip zero) : 432B392D AccurateRip signature : AFB7E7EA ->Accurately ripped! (confidence 1) Statistics Read error : 0 Skipped (treated as error) : 0 Edge jitter error (maybe fixed) : 0 Atom jitter error (maybe fixed) : 0 Drift error (maybe fixed) : 0 Dropped bytes error (maybe fixed) : 0 Duplicated bytes error (maybe fixed) : 0 Inconsistency in error sectors : 0
Track 30
CRC32 hash (test run) : B8FDFB3E CRC32 hash : B8FDFB3E CRC32 hash (skip zero) : 1DBAC45E AccurateRip signature : 6810946D ->Accurately ripped! (confidence 1) Statistics Read error : 0 Skipped (treated as error) : 0 Edge jitter error (maybe fixed) : 0 Atom jitter error (maybe fixed) : 0 Drift error (maybe fixed) : 0 Dropped bytes error (maybe fixed) : 0 Duplicated bytes error (maybe fixed) : 0 Inconsistency in error sectors : 0
Track 31
CRC32 hash (test run) : 0D09EA60 CRC32 hash : 0D09EA60 CRC32 hash (skip zero) : 5A97385C AccurateRip signature : 0B98B07D ->Accurately ripped! (confidence 1) Statistics Read error : 0 Skipped (treated as error) : 0 Edge jitter error (maybe fixed) : 0 Atom jitter error (maybe fixed) : 0 Drift error (maybe fixed) : 0 Dropped bytes error (maybe fixed) : 0 Duplicated bytes error (maybe fixed) : 0 Inconsistency in error sectors : 0
Track 32
CRC32 hash (test run) : 7F544C7E CRC32 hash : 7F544C7E CRC32 hash (skip zero) : 08CBC1BF AccurateRip signature : EA9BF6F2 ->Accurately ripped! (confidence 1) Statistics Read error : 0 Skipped (treated as error) : 0 Edge jitter error (maybe fixed) : 0 Atom jitter error (maybe fixed) : 0 Drift error (maybe fixed) : 0 Dropped bytes error (maybe fixed) : 0 Duplicated bytes error (maybe fixed) : 0 Inconsistency in error sectors : 0
No errors occurred
End of status report

1996 - Pictures At An Exhibition [Zardoz 2002-12, Germany]

01. Promenade (Group) (1:24)
02. Gnomus (Group) (2:44)
03. Inteludium (Group) (0:43)
04. Il Veccio Castello (Group) (3:56)
05. Interludium (Group) (0:29)
06. Tuileries (Dispute DeEnfants Apres Jeux) (Group) (1:54)
07. Bydtlo (Group) (3:02)
08. Interludium (Group) (0:40)
09. Ballet Of The Unhatched Chicks (Group) (1:23)
10. 'Samuel' Goldenberg & 'Schmuyle' (Group) (2:00)
11. Promenade (Group) (1:24)
12. Limoges: Le Marche (La Grande Nouvelle) (Group) (3:02)
13. Catacombae (Sepulcrum Romanum) (Group) (1:43)
14. Lingua Mortis (Group) (1:58)
15. The Hut On Chicken's Legs (Group) (3:26)
16. The Heroic Gate (In The Old Capital Of Kiev) (Group) (5:52)
17. Promenade (Group + Orchestra) (1:23)
18. Gnomus (Group + Orchestra) (2:44)
19. Interludium (Group + Orchestra) (0:43)
20. Il Veccio Castello (Group + Orchestra) (3:56)
21. Interludium (Group + Orchestra) (0:29)
22. Tuileries (Dispute DeEnfants Apres Jeux) (Group + Orchestra) (1:53)
23. Bydtlo (Group + Orchestra) (3:02)
24. Interludium (Group + Orchestra) (0:40)
25. Ballet Of The Unhatched Chicks (Group + Orchestra) (1:23)
26. 'Samuel' Goldenberg & 'Schmuyle' (Group + Orchestra) (2:00)
27. Promenade (Group + Orchestra) (1:27)
28. Limoges: Le Marche (La Grande Nouvelle) (Group + Orchestra) (3:06)
29. Catacombae (Sepulcrum Romanum) (Group + Orchestra) (1:42)
30. Lingua Mortis (Group + Orchestra) (1:58)
31. The Hut On The Chicken's Legs (Group + Orchestra) (3:27)
32. The Heroic Gate (In The Old Capital Of Kiev) (Group + Orchestra) (5:48)

Лог создания рипа

Exact Audio Copy V1.0 beta 1 from 15. November 2010
EAC extraction logfile from 18. January 2011, 16:51
Mekong Delta / Pictures At An Exhibition
Used drive : PIONEER DVD-RW DVR-112D Adapter: 1 ID: 0
Read mode : SecureUtilize accurate stream : YesDefeat audio cache : YesMake use of C2 pointers : No
Read offset correction : 48Overread into Lead-In and Lead-Out : NoFill up missing offset samples with silence : YesDelete leading and trailing silent blocks : NoNull samples used in CRC calculations : YesUsed interface : Installed external ASPI interface
Used output format : User Defined EncoderSelected bitrate : 1024 kBit/sQuality : HighAdd ID3 tag : NoCommand line compressor : C:\Program Files\Exact Audio Copy\FLAC\FLAC.EXEAdditional command line options : -8 -V %s
TOC of the extracted CD
Track | Start | Length | Start sector | End sector --------------------------------------------------------- 1 | 0:00.00 | 1:24.05 | 0 | 6304 2 | 1:24.05 | 2:43.52 | 6305 | 18581 3 | 4:07.57 | 0:43.30 | 18582 | 21836 4 | 4:51.12 | 3:55.70 | 21837 | 39531 5 | 8:47.07 | 0:28.48 | 39532 | 41679 6 | 9:15.55 | 1:54.02 | 41680 | 50231 7 | 11:09.57 | 3:02.28 | 50232 | 63909 8 | 14:12.10 | 0:40.30 | 63910 | 66939 9 | 14:52.40 | 1:22.67 | 66940 | 73156 10 | 16:15.32 | 2:00.13 | 73157 | 82169 11 | 18:15.45 | 1:23.42 | 82170 | 88436 12 | 19:39.12 | 3:02.23 | 88437 | 102109 13 | 22:41.35 | 1:42.50 | 102110 | 109809 14 | 24:24.10 | 1:58.10 | 109810 | 118669 15 | 26:22.20 | 3:26.07 | 118670 | 134126 16 | 29:48.27 | 5:51.60 | 134127 | 160511 17 | 35:40.12 | 1:22.65 | 160512 | 166726 18 | 37:03.02 | 2:43.55 | 166727 | 179006 19 | 39:46.57 | 0:43.33 | 179007 | 182264 20 | 40:30.15 | 3:55.72 | 182265 | 199961 21 | 44:26.12 | 0:28.55 | 199962 | 202116 22 | 44:54.67 | 1:53.35 | 202117 | 210626 23 | 46:48.27 | 3:02.33 | 210627 | 224309 24 | 49:50.60 | 0:40.32 | 224310 | 227341 25 | 50:31.17 | 1:22.68 | 227342 | 233559 26 | 51:54.10 | 2:00.10 | 233560 | 242569 27 | 53:54.20 | 1:26.65 | 242570 | 249084 28 | 55:21.10 | 3:05.55 | 249085 | 263014 29 | 58:26.65 | 1:42.07 | 263015 | 270671 30 | 60:08.72 | 1:58.08 | 270672 | 279529 31 | 62:07.05 | 3:26.62 | 279530 | 295041 32 | 65:33.67 | 5:47.40 | 295042 | 321106
Range status and errors
Selected range
Filename C:\CDRip by Deminbek\Mekong Delta - Pictures At An Exhibition [Zardoz 2002-12].wav
Peak level 98.8 % Extraction speed 0.6 X Range quality 99.9 % Test CRC CD89410E Copy CRC CD89410E Copy OK
No errors occurred
AccurateRip summary
Track 1 cannot be verified as accurate (confidence 4) [8264C71C], AccurateRip returned [B397D6DC]Track 2 cannot be verified as accurate (confidence 4) [CCA4DC9C], AccurateRip returned [019B1CEC]Track 3 cannot be verified as accurate (confidence 4) [D1F081A3], AccurateRip returned [BB791283]Track 4 cannot be verified as accurate (confidence 4) [BA9EC419], AccurateRip returned [DA685FE6]Track 5 cannot be verified as accurate (confidence 4) [709E845C], AccurateRip returned [D777700E]Track 6 cannot be verified as accurate (confidence 4) [4EE8ED1F], AccurateRip returned [DC1DCCEC]Track 7 cannot be verified as accurate (confidence 4) [BFF046DA], AccurateRip returned [72AAD24A]Track 8 cannot be verified as accurate (confidence 4) [BA849FA3], AccurateRip returned [543B7753]Track 9 cannot be verified as accurate (confidence 4) [65116CA3], AccurateRip returned [A709355D]Track 10 cannot be verified as accurate (confidence 4) [0FEB853D], AccurateRip returned [761488BF]Track 11 cannot be verified as accurate (confidence 4) [8AA399EB], AccurateRip returned [55EC7E65]Track 12 cannot be verified as accurate (confidence 4) [A3DC19D3], AccurateRip returned [AB14ED69]Track 13 cannot be verified as accurate (confidence 4) [C34B34CC], AccurateRip returned [39A3C31F]Track 14 cannot be verified as accurate (confidence 4) [CA31ED1A], AccurateRip returned [BAD64C47]Track 15 cannot be verified as accurate (confidence 4) [77A7857E], AccurateRip returned [5854DEFE]Track 16 cannot be verified as accurate (confidence 4) [1E735E88], AccurateRip returned [6DA06688]Track 17 cannot be verified as accurate (confidence 4) [A8C435B2], AccurateRip returned [31DCD572]Track 18 cannot be verified as accurate (confidence 4) [9A2E5192], AccurateRip returned [6C2B8B02]Track 19 cannot be verified as accurate (confidence 4) [EBED35F9], AccurateRip returned [EFE07039]Track 20 cannot be verified as accurate (confidence 4) [EB7DC721], AccurateRip returned [2D5756CD]Track 21 cannot be verified as accurate (confidence 4) [52E88A4A], AccurateRip returned [0F5DAE16]Track 22 cannot be verified as accurate (confidence 4) [9161F40E], AccurateRip returned [517C9AAE]Track 23 cannot be verified as accurate (confidence 4) [3D7B79CC], AccurateRip returned [2DA9B5AC]Track 24 cannot be verified as accurate (confidence 4) [3E488541], AccurateRip returned [846D3151]Track 25 cannot be verified as accurate (confidence 4) [267D445F], AccurateRip returned [DD161CEF]Track 26 cannot be verified as accurate (confidence 4) [8DBC3C9B], AccurateRip returned [FC83F2C3]Track 27 cannot be verified as accurate (confidence 4) [F082F696], AccurateRip returned [6DAB9BD6]Track 28 cannot be verified as accurate (confidence 4) [35AF4DF8], AccurateRip returned [405D56B8]Track 29 cannot be verified as accurate (confidence 4) [D445F666], AccurateRip returned [32C50774]Track 30 cannot be verified as accurate (confidence 4) [E31792A5], AccurateRip returned [14376EB3]Track 31 cannot be verified as accurate (confidence 4) [C18430C6], AccurateRip returned [B0A55896]Track 32 cannot be verified as accurate (confidence 4) [A8963CDD], AccurateRip returned [DFE8320D]
No tracks could be verified as accurateYou may have a different pressing from the one(s) in the database
End of status report
==== Log checksum A5D1E55896C8B117982A72FCFB5A58D83F7ED7D4AB67FDB5F49EB5023A750486 ====

2007 - Lurking Fear [AFM 173-9, Germany]

01. Society in Dissolution (4:59)
02. Purification (5:08)
03. Immortal Hate (Accepting Prayers of Supremacy) (5:14)
04. Allegro Furioso (3:07)
05. Rules of Corruption (5:26)
06. Ratters (Among the Dead) (5:05)
07. Moderato (3:53)
08. Defenders of the Faith (7:02)
09. Symphony of Agony (5:08)
10. Allegro (4:16)

Лог создания рипа

Exact Audio Copy V0.99 prebeta 5 from 4. May 2009
EAC extraction logfile from 27. August 2010, 19:24
Mekong Delta / Lurking Fear
Used drive : Optiarc DVD RW AD-7240S Adapter: 2 ID: 0
Read mode : SecureUtilize accurate stream : YesDefeat audio cache : YesMake use of C2 pointers : No
Read offset correction : 48Overread into Lead-In and Lead-Out : NoFill up missing offset samples with silence : YesDelete leading and trailing silent blocks : NoNull samples used in CRC calculations : YesUsed interface : Native Win32 interface for Win NT & 2000
Used output format : Internal WAV RoutinesSample format : 44.100 Hz; 16 Bit; Stereo
TOC of the extracted CD
Track | Start | Length | Start sector | End sector --------------------------------------------------------- 1 | 0:00.00 | 4:58.47 | 0 | 22396 2 | 4:58.47 | 5:08.21 | 22397 | 45517 3 | 10:06.68 | 5:14.28 | 45518 | 69095 4 | 15:21.21 | 3:06.73 | 69096 | 83118 5 | 18:28.19 | 5:25.50 | 83119 | 107543 6 | 23:53.69 | 5:04.41 | 107544 | 130384 7 | 28:58.35 | 3:52.64 | 130385 | 147848 8 | 32:51.24 | 7:02.30 | 147849 | 179528 9 | 39:53.54 | 5:08.20 | 179529 | 202648 10 | 45:01.74 | 4:16.37 | 202649 | 221885
Range status and errors
Selected range
Filename D:\spiralarch\Mekong Delta - Lurking Fear.wav
Peak level 97.7 % Range quality 100.0 % Copy CRC D1660B8F Copy OK
No errors occurred
AccurateRip summary
Track 1 accurately ripped (confidence 2) [709D17CD]Track 2 accurately ripped (confidence 2) [098536A9]Track 3 accurately ripped (confidence 2) [016A943F]Track 4 accurately ripped (confidence 2) [F560ACEE]Track 5 accurately ripped (confidence 2) [839B7AB5]Track 6 accurately ripped (confidence 2) [4B83FF9E]Track 7 accurately ripped (confidence 2) [E4B2C85C]Track 8 accurately ripped (confidence 2) [CC22B622]Track 9 accurately ripped (confidence 2) [E200C4D0]Track 10 accurately ripped (confidence 2) [AE5CEBA6]
All tracks accurately ripped
End of status report

2010 - Wanderer On The Edge Of Time [AAARRG 2010-1D, Germany]

01. Intro - Concert Guitar (2:18)
02. Ouverture (2:51)
03. A Certain Fool ( Le Fou ) Movement 1 (3:38)
04. Interlude 1 - Group (0:53)
05. The 5th Element ( Le Bateleur ) Movement 2 (6:32)
06. Interlude 2 - Group (0:34)
07. The Apocalypt - World In Shards ( La Maison Dieu ) Movement 3(5:43)
08. Interlude 3 - Concert Guitar (2:03)
09. King With Broken Crown ( Le Diable ) Movement 4 (5:42)
10. Intermezzo ( Instrumental ) Movement 5 (5:24)
11. Interlude 4 - Group (2:12)
12. Affection ( L' Amoureux ) Movement 6 (2:53)
13. Interlude 5 - Group (0:51)
14. Mistaken Truth ( Le Heretique ) Movement 7 (5:11)

Лог создания рипа

Exact Audio Copy V0.99 prebeta 5 from 4. May 2009
EAC extraction logfile from 27. August 2010, 20:19
Mekong Delta / Wanderer On The Edge Of Time
Used drive : Optiarc DVD RW AD-7240S Adapter: 2 ID: 0
Read mode : SecureUtilize accurate stream : YesDefeat audio cache : YesMake use of C2 pointers : No
Read offset correction : 48Overread into Lead-In and Lead-Out : NoFill up missing offset samples with silence : YesDelete leading and trailing silent blocks : NoNull samples used in CRC calculations : YesUsed interface : Native Win32 interface for Win NT & 2000
Used output format : Internal WAV RoutinesSample format : 44.100 Hz; 16 Bit; Stereo
TOC of the extracted CD
Track | Start | Length | Start sector | End sector --------------------------------------------------------- 1 | 0:00.00 | 2:18.03 | 0 | 10352 2 | 2:18.03 | 2:50.42 | 10353 | 23144 3 | 5:08.45 | 3:37.45 | 23145 | 39464 4 | 8:46.15 | 0:52.63 | 39465 | 43427 5 | 9:39.03 | 6:32.32 | 43428 | 72859 6 | 16:11.35 | 0:34.29 | 72860 | 75438 7 | 16:45.64 | 5:43.22 | 75439 | 101185 8 | 22:29.11 | 2:03.15 | 101186 | 110425 9 | 24:32.26 | 5:41.52 | 110426 | 136052 10 | 30:14.03 | 5:23.40 | 136053 | 160317 11 | 35:37.43 | 2:11.56 | 160318 | 170198 12 | 37:49.24 | 2:53.24 | 170199 | 183197 13 | 40:42.48 | 0:51.18 | 183198 | 187040 14 | 41:33.66 | 5:10.66 | 187041 | 210356 15 | 46:44.57 | 2:56.50 | 210357 | 223606
Range status and errors
Selected range
Filename D:\spiralarch\Mekong Delta - Wanderer On The Edge Of Time.wav
Peak level 94.4 % Range quality 100.0 % Copy CRC F386F67C Copy OK
No errors occurred
AccurateRip summary
Track 1 accurately ripped (confidence 3) [1D7EC870]Track 2 accurately ripped (confidence 3) [3867644A]Track 3 accurately ripped (confidence 3) [8308F477]Track 4 accurately ripped (confidence 3) [677240C9]Track 5 accurately ripped (confidence 3) [2BE1669F]Track 6 accurately ripped (confidence 3) [7F59D616]Track 7 accurately ripped (confidence 3) [4243F2BB]Track 8 accurately ripped (confidence 3) [4AE55E39]Track 9 accurately ripped (confidence 3) [40098F43]Track 10 accurately ripped (confidence 3) [D8EAF5A6]Track 11 accurately ripped (confidence 3) [9146BEE1]Track 12 accurately ripped (confidence 3) [8A105A4E]Track 13 accurately ripped (confidence 3) [E9E9CB78]Track 14 accurately ripped (confidence 3) [D9465374]Track 15 accurately ripped (confidence 3) [03EC7FB2]
All tracks accurately ripped
End of status report

2012 - Intersections [SPV 260222 CD, Germany]

01. The Cure (4:08)
02. Shades Of Doom (4:13)
03. Sphere Eclipse (6:08)
04. The Healer (7:25)
05. Innocent (5:11)
06. Memories Of Tomorrow (4:37)
07. Heroes Grief (5:35)
08. Heartbeat (6:54)
09. Transgressor (3:32)
10. Prophecy (4:18)

Лог создания рипа

Exact Audio Copy V1.0 beta 3 from 29. August 2011
EAC extraction logfile from 18. February 2014, 15:31
Mekong Delta / Intersections [SPV 260222 CD]
Used drive : TSSTcorpCDDVDW SH-222BB Adapter: 1 ID: 0
Read mode : SecureUtilize accurate stream : YesDefeat audio cache : YesMake use of C2 pointers : No
Read offset correction : 6Overread into Lead-In and Lead-Out : NoFill up missing offset samples with silence : YesDelete leading and trailing silent blocks : NoNull samples used in CRC calculations : YesUsed interface : Native Win32 interface for Win NT & 2000
Used output format : User Defined EncoderSelected bitrate : 1024 kBit/sQuality : HighAdd ID3 tag : NoCommand line compressor : C:\Program Files\Exact Audio Copy\FLAC\FLAC.EXEAdditional command line options : -V -8 -T "Date=%year%" -T "Genre=%genre%" %source%
TOC of the extracted CD
Track | Start | Length | Start sector | End sector --------------------------------------------------------- 1 | 0:00.00 | 4:08.13 | 0 | 18612 2 | 4:08.13 | 4:13.23 | 18613 | 37610 3 | 8:21.36 | 6:08.24 | 37611 | 65234 4 | 14:29.60 | 7:25.25 | 65235 | 98634 5 | 21:55.10 | 5:10.73 | 98635 | 121957 6 | 27:06.08 | 4:37.05 | 121958 | 142737 7 | 31:43.13 | 5:34.46 | 142738 | 167833 8 | 37:17.59 | 6:54.00 | 167834 | 198883 9 | 44:11.59 | 3:32.00 | 198884 | 214783 10 | 47:43.59 | 4:18.06 | 214784 | 234139
Range status and errors
Selected range
Filename C:\Users\inotuh\Desktop\Mekong Delta - Intersections [SPV 260222 CD].wav
Peak level 100.0 % Extraction speed 2.9 X Range quality 100.0 % Test CRC 64049E19 Copy CRC 64049E19 Copy OK
No errors occurred
AccurateRip summary
Track 1 accurately ripped (confidence 3) [A6690927] (AR v2)Track 2 accurately ripped (confidence 3) [385C6F48] (AR v2)Track 3 accurately ripped (confidence 3) [2AAF4E57] (AR v2)Track 4 accurately ripped (confidence 3) [EC621FAF] (AR v2)Track 5 accurately ripped (confidence 3) [358660B0] (AR v2)Track 6 accurately ripped (confidence 3) [0DDF301D] (AR v2)Track 7 accurately ripped (confidence 3) [86C20E28] (AR v2)Track 8 accurately ripped (confidence 3) [61C4C387] (AR v2)Track 9 accurately ripped (confidence 3) [05EE55F2] (AR v2)Track 10 accurately ripped (confidence 3) [E04E3F80] (AR v2)
All tracks accurately ripped
End of status report
---- CUETools DB Plugin V2.1.5
[CTDB TOCID: A.Yt8s6ULOWspFSdbaKJFCmmRA0-] foundSubmit result: A.Yt8s6ULOWspFSdbaKJFCmmRA0- has been confirmedTrack | CTDB Status 1 | (4/4) Accurately ripped 2 | (4/4) Accurately ripped 3 | (4/4) Accurately ripped 4 | (4/4) Accurately ripped 5 | (4/4) Accurately ripped 6 | (4/4) Accurately ripped 7 | (4/4) Accurately ripped 8 | (4/4) Accurately ripped 9 | (4/4) Accurately ripped 10 | (4/4) Accurately ripped
==== Log checksum 2D4B1B87B39F6E9DAAB4101C2D741337E272387E279FA42F7361C59C1C3E4ED0 ====

СПАСИБО

jackinthegreen
1990 - Dances Of Death [1991, TECP-25592, Japan]
1996 - Pictures At An Exhibition [TECW-25413, Japan]
jarpomarx
1987 - Mekong Delta+The Music Of Erich Zann [1990, TECP-25547, Japan]
1989 - The Principle Of Doubt+Toccata [1990, TECP-25494, Japan]
1992 - Kaleidoscope [1993, TECX-25459, Japan]
spiralarch
2007 - Lurking Fear [AFM 173-9, Germany]
2010 - Wanderer On The Edge Of Time [AAARRG 2010-1D, Germany]
Mysterons
1991 - Live At An Exhibition [TECX-25373, Japan]
inotuh
2012 - Intersections [SPV 260222 CD, Germany]
Other forum [Profile] [PM]
Similar theme
Forum Topic Author Torrent Replies Last Post
./templates/default/images/folder_dl.gif Rock (Progressive rock) [CD] Emerson Lake & Palmer: Pictures At An Exhibition, 1971 (японский ремастер 1999), FLAC (tracks+.cue), lossless Omen
0 | 1

0 | 798

0

2014-02-04 23:00
Omen Latest
./templates/default/images/folder_dl.gif Rock (Progressive Rock, Symphonic Rock) [CD] Emerson Lake & Palmer - 3 Albums Mini LP PT-SHM K2HD 1970-71 (Victor Japan 2014), FLAC (image+.cue), lossless Omen
0 | 1

0 | 770

0

2014-05-23 17:33
Omen Latest
./templates/default/images/folder_dl.gif Rock (Progressive & Art-Rock) Emerson, Lake & Palmer (ELP) - Дискография. The Discography (9 Studio, 15 Live, 4 Compilation, 3 Collaboration, 3 Box Set, 38 issues, 60CD) - 1970-2014, FLAC (image+.cue), lossless Omen
0 | 1

0 | 651

1

2015-01-02 18:00
Omen Latest
./templates/default/images/folder_dl.gif Rock (Progressive Rock) [CD] Sky - Sky3 (2015, CD+DVD, Esoteric Recordigs, EU, UK, ECLEC 22475) - 1981, FLAC (image+.cue), lossless Omen
0 | 1

0 | 634

0

2015-03-20 09:00
Omen Latest
./templates/default/images/folder_dl.gif Rock (Progressive Rock) [CD] Mostly Autumn - Dressed in Voices (Limited Edition - 2CD) - 2014, FLAC (image+.cue), lossless Omen
1 | 0

0 | 2076

15

2015-04-29 18:52
Omen Latest
./templates/default/images/folder_dl.gif Rock (Progressive Rock) Mostly Autumn - Dressed in Voices (Limited Edition - 2CD) - 2014, MP3, 320 kbps Omen
1 | 0

0 | 2313

19

2015-04-29 21:00
Omen Latest
./templates/default/images/folder_dl.gif Metal (Progressive Metal) [CD] Leprous - The Congregation (Limited Edition) - 2015, FLAC (tracks+.cue), lossless Omen
0 | 1

0 | 2842

17

2015-05-21 00:05
Omen Latest
./templates/default/images/folder_dl.gif Rock (Progressive Hard Rock / Melodic Metal) Starquake - Times That Matter - 2015, MP3, 320 kbps Omen
0 | 1

0 | 1854

10

2015-07-10 18:21
Omen Latest
./templates/default/images/folder_dl.gif Rock (Progressive Rock) Spock\'s Beard - The Oblivion Particle - 2015, MP3, 320 kbps Omen
1 | 0

0 | 1933

11

2015-08-21 00:00
Omen Latest
./templates/default/images/folder_dl.gif Rock (Progressive Rock/Jazz Rock) Linda Hoyle - The Fetch - 2015, MP3, 320 kbps Omen
0 | 1

0 | 1066

5

2015-08-31 00:00
Omen Latest
Display posts from previous:    
Reply to topic

The time now is: Today 17:46

All times are GMT + 3 Hours



You cannot post new topics in this forum
You cannot reply to topics in this forum
You cannot edit your posts in this forum
You cannot delete your posts in this forum
You cannot vote in polls in this forum
You cannot attach files in this forum
You cannot download files in this forum