Today is a free download without charge Download

NG: Человек против гепарда / Man v. Cheetah (Роберт Керран)[2013.,Документальный, научно-популярный, познавательный] HDTVRip

Reply to topic
 
Author
Message

sashau ®

Gender:

Longevity: 8 years

Posts: 3497

Торрент-статистика

Post 14-Feb-2014 12:21

[Quote]

NG: Человек против гепарда / Man v. Cheetah - Страна: США
Режиссер / Телекомпания: Роберт Керран, National Geographic
Год выпуска: 2013
Жанр: Документальный, научно-популярный, познавательный
Описание:
Гепарды будут состязаться с лучшими игроками НФЛ. Кто победит? Сможет ли человек обогнать самого быстрого представителя царства животных из семейства кошачьих?
В этой программе мы сравним возможности человека и гепарда.
Продолжительность: 00:43:59
Качество видео: HDTVRip
Перевод: Одноголосый закадровый, профессиональный (АРК·ТВ)
Видеокодек: Xvid
Битрейт видео: ~5052 Кбит/сек
Размер кадра: 720x400 (16:9)
Аудиокодек: AC3, 2.0 ch
Битрейт аудио: 192 Кбит/сек

MediaInfo

Код:
Общее
Полное имя                               : Человек против гепарда. Man v. Cheetah 2013.avi
Формат                                   : AVI
Формат/Информация                        : Audio Video Interleave
Размер файла                             : 1,61 Гбайт
Продолжительность                        : 43 м.
Общий поток                              : 5254 Кбит/сек
Библиотека кодирования                   : VirtualDub build 35491/release
Видео
Идентификатор                            : 0
Формат                                   : MPEG-4 Visual
Профиль формата                          : Advanced Simple@L5
Параметр BVOP формата                    : 2
Параметр QPel формата                    : Нет
Параметр GMC формата                     : Без точки перехода
Параметр матрицы формата                 : Default (H.263)
Режим смешивания                         : Сжатый битовый поток
Идентификатор кодека                     : XVID
Идентификатор кодека/Подсказка           : XviD
Продолжительность                        : 43 м.
Битрейт                                  : 5052 Кбит/сек
Ширина                                   : 720 пикселей
Высота                                   : 400 пикселей
Соотношение сторон                       : 16:9
Частота кадров                           : 25,000 кадров/сек
Цветовое пространство                    : YUV
Субдискретизация насыщенности            : 4:2:0
Битовая глубина                          : 8 бит
Тип развёртки                            : Прогрессивная
Метод сжатия                             : С потерями
Бит/(Пиксели*Кадры)                      : 0.702
Размер потока                            : 1,55 Гбайт (96%)
Библиотека кодирования                   : XviD 64
Аудио
Идентификатор                            : 1
Формат                                   : AC-3
Формат/Информация                        : Audio Coding 3
Расширение режима                        : CM (complete main)
Параметр Endianness формата              : Big
Идентификатор кодека                     : 2000
Продолжительность                        : 43 м.
Вид битрейта                             : Постоянный
Битрейт                                  : 192 Кбит/сек
Каналы                                   : 2 канала
Расположение каналов                     : Front: L R
Частота                                  : 48,0 КГц
Битовая глубина                          : 16 бит
Метод сжатия                             : С потерями
Размер потока                            : 60,4 Мбайт (4%)
Выравнивание                             : Соединение по промежуткам
Продолжительность промежутка             : 40  мс. (1,00 видеокадр)
Время предзагрузки промежутка            : 512  мс.
Скриншоты:                    
Other forum [Profile] [PM]
Display posts from previous:    
Reply to topic

The time now is: Today 08:08

All times are GMT + 3 Hours



You cannot post new topics in this forum
You cannot reply to topics in this forum
You cannot edit your posts in this forum
You cannot delete your posts in this forum
You cannot vote in polls in this forum
You cannot attach files in this forum
You cannot download files in this forum