Today is a free download without charge Download

(Heavy-metal) Ария - Штиль - 2002, FLAC (image + .cue), lossless

Reply to topic
 
Author
Message

Samizdat ®

Longevity: 8 years 4 months

Posts: 64

Торрент-статистика

Post 18-Jul-2011 12:04

[Quote]

Ария - Штиль-- Страна: Россия
Жанр: Heavy-metal
Год выпуска: 2002
Формат: FLAC (image + .cue)
Битрейт аудио: lossless
Продолжительность: 00:55:40
Источник: собственный рип
Трэклист:
01. Штиль
02. Пробил Час
03. Небо Тебя Найдет
04. Ангельская пыль
05. Свобода
06. Герой асфальта
07. Потерянный рай
08. You'd better believe me
09. Беспечный ангел
10. Машина смерти
11. Дай руку мне (Bonus)
Доп. информация:

EAC

Exact Audio Copy V0.99 prebeta 1 from 25. May 2007
Отчёт EAC об извлечении, выполненном 3. января 2011, 12:33
Ария / Штиль
Дисковод: ASUS DRW-2014S1 Adapter: 1 ID: 0
Режим чтения : Достоверность
Использование точного потока : Да
Отключение кэша аудио : Нет
Использование указателей C2 : Нет
Коррекция смещения при чтении : 6
Способность читать области Lead-in и Lead-out : Нет
Заполнение пропущенных сэмплов тишиной : Да
Удаление блоков с тишиной в начале и конце : Нет
Интерфейс : Встроенный Win32-интерфейс для Win NT/2000
Выходной формат : Пользовательский кодировщик
Выбранный битрейт : 768 kBit/s
Качество : Высокий
Добавление ID3-тэга : Нет
Утилита сжатия : C:\Program Files\Exact Audio Copy\FLAC\FLAC.EXE
Дополнительные параметры : -6 -V -T "ARTIST=%a" -T "TITLE=%t" -T "ALBUM=%g" -T "DATE=%y" -T "TRACKNUMBER=%n" -T "GENRE=%m" -T "COMMENT=%e" %s -o %d
TOC извлечённого CD
Трек | Старт | Длительность | Начальный сектор | Конечный сектор
---------------------------------------------------------------------
1 | 0:00.00 | 5:11.32 | 0 | 23356
2 | 5:11.32 | 5:19.40 | 23357 | 47321
3 | 10:30.72 | 6:04.33 | 47322 | 74654
4 | 16:35.30 | 6:00.60 | 74655 | 101714
5 | 22:36.15 | 5:13.39 | 101715 | 125228
6 | 27:49.54 | 5:14.73 | 125229 | 148851
7 | 33:04.52 | 5:35.33 | 148852 | 174009
8 | 38:40.10 | 4:00.61 | 174010 | 192070
9 | 42:40.71 | 3:58.49 | 192071 | 209969
10 | 46:39.45 | 3:54.42 | 209970 | 227561
11 | 50:34.12 | 5:05.57 | 227562 | 250493
Характеристики диапазона извлечения и сообщения об ошибках
Выбранный диапазон
Имя файла D:\Music\Ария\CD LosLess\2002 - Штиль\Ария - Штиль.wav
Подозрительная позиция 0:50:51 - 0:50:55
Подозрительная позиция 0:53:33 - 0:53:37
Подозрительная позиция 0:55:26 - 0:55:31
Пиковый уровень 100.0 %
Качество диапазона 98.1 %
CRC копии CB526A6D
Копирование завершено
AccurateRip: сводка
Трек 1 неточное извлечение (доверие 6) [9B219391], но должно быть [D8254901]
Трек 2 неточное извлечение (доверие 6) [C0C97778], но должно быть [9DF7A270]
Трек 3 неточное извлечение (доверие 6) [023685F5], но должно быть [4E3613DD]
Трек 4 неточное извлечение (доверие 6) [E8C68609], но должно быть [F7ED2DD9]
Трек 5 неточное извлечение (доверие 6) [DD395FF4], но должно быть [990CC3DC]
Трек 6 неточное извлечение (доверие 6) [125DDF53], но должно быть [5CFCD73B]
Трек 7 неточное извлечение (доверие 6) [6133A629], но должно быть [6AC72D09]
Трек 8 неточное извлечение (доверие 6) [392594D6], но должно быть [7CD81A8E]
Трек 9 неточное извлечение (доверие 5) [DD61A89C], но должно быть [155CF2EC]
Трек 10 неточное извлечение (доверие 6) [63D8478D], но должно быть [126CB815]
Трек 11 неточное извлечение (доверие 6) [D7E544EF], но должно быть [BA565E07]
Были ошибки
Конец отчёта

_________________
Скачал - дай другому скачать! Не будь жадиной!


Last edited by Samizdat on 2011-07-18 19:10; edited 2 times in total
Other forum [Profile] [PM]

Nugeiro

Gender:

Longevity: 8 years 8 months

Posts: 1981

Location: Украина, Шостка

Торрент-статистика

Post 18-Jul-2011 12:10 (after 6 minutes)

[Quote]

Спасибо, постер сместил вправо, что бы в ленте отображался...

_________________
Other forum [Profile] [PM]

Samizdat ®

Longevity: 8 years 4 months

Posts: 64

Торрент-статистика

Post 18-Jul-2011 12:11 (after 1 minute)

[Quote]

Oxygenius
Не за что, уже понял по поводу ленты)

_________________
Скачал - дай другому скачать! Не будь жадиной!
Other forum [Profile] [PM]
Display posts from previous:    
Reply to topic

The time now is: Today 03:37

All times are GMT + 3 Hours



You cannot post new topics in this forum
You cannot reply to topics in this forum
You cannot edit your posts in this forum
You cannot delete your posts in this forum
You cannot vote in polls in this forum
You cannot attach files in this forum
You cannot download files in this forum