Today is a free download without charge Download

Олимпийские игры 2014. Фигурное катание. Командные соревнования. Спортивные пары. Короткая программа (2014.02.06) HDTVRip [H.264/720p]

Reply to topic
 
Author
Message

Varius ®

Gender:

Longevity: 11 years

Posts: 2428

Location: Hell

Торрент-статистика

Post 07-Feb-2014 04:32

[Quote]

Олимпийские игры 2014. Фигурное катание. Командные соревнования. Спортивные пары. Короткая программа (2014.02.06) HDTVRip [H.264/720p] - Режиссер / Телекомпания: НТВ
Русское название: Олимпийские игры 2014. Фигурное катание. Командные соревнования. Спортивные пары. Короткая программа
Год выпуска: 2014
Жанр: Спорт
Выпущено: Россия, НТВ+
Описание:
Командные соревнования – не новость в фигурном катании. Впервые международный союз конькобежцев (ISU) включил их в программу чемпионатов мира в 2009 году, чтобы простимулировать страны развивать все виды фигурного катания. И вот теперь командное первенство готово дебютировать на Олимпийских играх, увеличив количество разыгрываемых медалей с четырёх до пяти. Нововведения: Главное отличие предстоящего олимпийского командного турнира от тех, что проводятся в рамках чемпионатов мира, заключается в равномерном распределении нагрузки между всеми четырьмя видами в то время, как на мундиале был явный перекос в сторону одиночного катания. Именно они проделывали большую часть работы по добыче драгметаллов, поскольку команда состояла из четырёх одиночников – двух мужчин и двух женщин, одной пары и одного танцевального дуэта. Вследствие чего преимущество получали страны, где эти виды были особенно развиты. На Олимпийских играх каждая страна может выставить только по одному представителю в мужском и женском одиночном, а также парном катании и танцах на льду. Не считая замен, но о них будет сказано отдельно. Отбор участников:Отбор на олимпийский командный турнир происходил по итогам чемпионата мира-2013, а также серии Гран-при сезона-2013/14. Рейтинг стран составлялся по результатам выступлений их лучших представителей в каждом из четырёх видов фигурного катания на указанных турнирах. В случае нехватки рейтинговых очков учитывались итоги чемпионата Европы-2013, Турнира четырех континентов и юниорского первенства. Кроме того, в командном чемпионате на Олимпийских играх выступать могут только те спортсмены, которые отобрались для участия в индивидуальном первенстве. Исключение может быть сделано лишь для тех стран, у которых вообще нет представителей в каком-либо из видов. Например, в японской команде не смогла квалифицироваться для участия в Олимпиаде пара, в британской недостача в мужском одиночном. Тем не менее и те, и другие получили шанс стартовать в Сочи, использовав дополнительную квоту. При этом команда может не выставлять своего участника в одной из дисциплин, но не имеет права компенсировать недостачу дополнительной единицей в оставшихся трёх видах.
Комментатор: Татьяна Тарасова, Василий Соловьёв
Продолжительность: 01:56:06
Видеокодек: AVC
Качество видео: HDTVRip
Битрейт видео: ~4425 kb/s
Размер кадра: 1280 x 720
Аудиокодек: AC-3, 2.0ch.
Битрейт аудио: 192 kb/s

Участники

   

MediaInfo:

Формат : Matroska
Версия формата : Version 2
Размер файла : 3,82 Гбайт
Продолжительность : 1 ч. 56 м.
Общий поток : 4710 Кбит/сек
Название фильма : Веб-камера, TV или другое видеоустройство
Программа кодирования : Lavf54.63.104
Библиотека кодирования : Lavf54.63.104
Видео
Идентификатор : 1
Формат : AVC
Формат/Информация : Advanced Video Codec
Профиль формата : [url=mailto:High@L3.2]High@L3.2[/url]
Параметр CABAC формата : Нет
Параметр ReFrames формата : 1 кадр
Идентификатор кодека : V_MPEG4/ISO/AVC
Продолжительность : 1 ч. 56 м.
Битрейт : 4425 Кбит/сек
Ширина : 1280 пикселей
Высота : 720 пикселей
Соотношение сторон : 16:9
Режим частоты кадров : Переменный
Частота кадров : 50,000 кадров/сек
Цветовое пространство : YUV
Субдискретизация насыщенности : 4:2:0
Битовая глубина : 8 бит
Тип развёртки : Прогрессивная
Бит/(Пиксели*Кадры) : 0.096
Размер потока : 3,59 Гбайт (94%)
Язык : English
Default : Да
Forced : Нет
Аудио
Идентификатор : 2
Формат : AC-3
Формат/Информация : Audio Coding 3
Расширение режима : CM (complete main)
Идентификатор кодека : A_AC3
Продолжительность : 1 ч. 56 м.
Вид битрейта : Постоянный
Битрейт : 192 Кбит/сек
Каналы : 2 канала
Расположение каналов : Front: L R
Частота : 48,0 КГц
Битовая глубина : 16 бит
Метод сжатия : С потерями
Размер потока : 159 Мбайт (4%)
Язык : English
Default : Да
Forced : Нет
Скриншоты:          

_________________

Создавая "Новую папку", не считайте себя Создателем - это право Вам дано Админом


Other forum [Profile] [PM]
Display posts from previous:    
Reply to topic

The time now is: Today 13:26

All times are GMT + 3 Hours



You cannot post new topics in this forum
You cannot reply to topics in this forum
You cannot edit your posts in this forum
You cannot delete your posts in this forum
You cannot vote in polls in this forum
You cannot attach files in this forum
You cannot download files in this forum