Today is a free download without charge Download

Олимпийские игры 2014. Сочи. Фристайл. Могул. Женщины. Квалификация (2014) SATRip

Reply to topic
 
Author
Message

Varius ®

Gender:

Longevity: 11 years

Posts: 2428

Location: Hell

Торрент-статистика

Post 06-Feb-2014 20:04

[Quote]

Олимпийские игры 2014. Сочи. Фристайл. Могул. Женщины. Квалификация (2014) SATRip- Режиссер / Телекомпания: Россия 2
Название: Олимпийские игры. Сочи. Фристайл. Могул. Женщины. Квалификация
Год выпуска: 06.02.2014
Жанр: Спорт
Описание:
Могул представляет собой спуск по бугристому склону. Во время прохождения трассы каждый спортсмен должен совершить два прыжка с трамплинов. Победителями становятся участники, получившие за свое выступление наибольшее количество баллов. Судьи оценивают качество «обработки» бугров на трассе, качество и сложность прыжков. К сумме оценок, выставленных судьями, прибавляется оценка за скорость, определяемая по специальной формуле. Соревнования по акробатике включают квалификационный и финальный этапы. В каждом из них спортсмены выполняют по два прыжка со специального трамплина. В финал проходят спортсмены, набравшие наибольшее количество баллов после двух прыжков. Очки из квалификационного раунда на финал не переносятся. Судьи оценивают каждый прыжок с точки зрения техники выполнения спортсменом отталкивания, непосредственно самого прыжка и приземления.
Продолжительность: 01:02:37
Качество видео: SATRip
Видеокодек: Xvid
Битрейт видео: ~1800 Кбит/сек
Размер кадра: 704x448
Аудиокодек: MP3 2.0
Битрейт аудио: 128 Кбит/сек

MediaInfo:

Общее
Полное имя : D:\Видео\Олимпийские игры 2014. Сочи. Фристайл. Могул. Женщины. Квалификация (2014) SATRip.avi
Формат : AVI
Формат/Информация : Audio Video Interleave
Размер файла : 867 Мбайт
Продолжительность : 1 ч. 2 м.
Общий поток : 1937 Кбит/сек
Библиотека кодирования : VirtualDub build 32507/release
Видео
Идентификатор : 0
Формат : MPEG-4 Visual
Профиль формата : Advanced Simple@L5
Параметр BVOP формата : 2
Параметр QPel формата : Нет
Параметр GMC формата : Без точки перехода
Параметр матрицы формата : Default (H.263)
Режим смешивания : Сжатый битовый поток
Идентификатор кодека : XVID
Идентификатор кодека/Подсказка : XviD
Продолжительность : 1 ч. 2 м.
Битрейт : 1800 Кбит/сек
Ширина : 704 пикселя
Высота : 448 пикселей
Соотношение сторон : 16:10
Частота кадров : 25,000 кадров/сек
Цветовое пространство : YUV
Субдискретизация насыщенности : 4:2:0
Битовая глубина : 8 бит
Тип развёртки : Прогрессивная
Метод сжатия : С потерями
Бит/(Пиксели*Кадры) : 0.228
Размер потока : 806 Мбайт (93%)
Библиотека кодирования : XviD 1.1.2 (UTC 2006-11-01)
Аудио
Идентификатор : 1
Формат : MPEG Audio
Версия формата : Version 1
Профиль формата : Layer 3
Режим : Joint stereo
Расширение режима : MS Stereo
Идентификатор кодека : 55
Идентификатор кодека/Подсказка : MP3
Продолжительность : 1 ч. 2 м.
Вид битрейта : Постоянный
Битрейт : 128 Кбит/сек
Каналы : 2 канала
Частота : 48,0 КГц
Метод сжатия : С потерями
Размер потока : 57,3 Мбайт (7%)
Выравнивание : Разделение по промежуткам
Продолжительность промежутка : 40 мс. (1,00 видеокадр)
Время предзагрузки промежутка : 500 мс.
-Скриншоты:          

_________________

Создавая "Новую папку", не считайте себя Создателем - это право Вам дано Админом


Other forum [Profile] [PM]
Display posts from previous:    
Reply to topic

The time now is: Today 12:48

All times are GMT + 3 Hours



You cannot post new topics in this forum
You cannot reply to topics in this forum
You cannot edit your posts in this forum
You cannot delete your posts in this forum
You cannot vote in polls in this forum
You cannot attach files in this forum
You cannot download files in this forum