Today is a free download without charge Download

NG: Табу США (Запреты США). Серия 5 / Taboo USA (2013) SATRip

Reply to topic
 
Author
Message

UndegraundMen ®

Longevity: 6 years 9 months

Posts: 25145

Торрент-статистика

Post 28-Dec-2013 11:01

[Quote]

NG: Табу США (Запреты США). Серия 5 / Taboo USA (2013) SATRip - Режиссер / Телекомпания: National Geographic
Русское название: Табу США
Оригинальное название: Taboo USA
Год выпуска: 2013
Жанр: Документальный
Выпущено: США, National Geographic
Описание:
Мир тайн скрыт за благопристойным фасадом Америки. Люди живут необычной жизнью и раздвигают границы того, что общество считает нормальным. От медицинских странностей до одержимых, Запреты США показывают жизнь тех, кто живет как отшельник. Несколько необыкновенных героев сериала, которые делают и любят нечто запретное, и чьи жизни стали табу. От вампиров до человека, который считает себя собакой – истории людей, бросающих вызов обществу. Будь то практика темных ритуалов вуду, вопросы здравоохранения или широкие границы того, что любить и кого любить - и это еще не все запреты США, о которых мы можем рассказать.
Режиссер: Brad Kreisberg
В выпуске: 05 Странное лечение
Некоторые доверяют свое здоровье и благосостояние радикальной медицине. В Уэст-Палм-Бич доктор помогает своим пациентам брать новые, высоты ломая им ноги. Во Флориде мужчина занимается самолечением, используя яд. В Лос-Анджелесе священник прибегает к черной магии для лечения своих клиентов. А в Нью-Йорке доктор лечит болезни с помощью кровососущих организмов. Все они балансируют на грани медицины из-за методов и ритуалов, являющихся запретными.
Текст читал: Радик Мухаметзянов
Озвучено: АРК-ТВ
Перевод: Одноголосый закадровый
Продолжительность: 00:43:59
Видеокодек: XVID
Качество видео: SATRip
Битрейт видео: ~1560 kb/s
Размер кадра: 720 x 400
Аудио (русский): AC-3, 2.0ch., 192 kb/s
Аудио (английский): AC-3, 2.0ch., 192 kb/s

MediaInfo:

Формат : AVI
Формат/Информация : Audio Video Interleave
Размер файла : 618 Мбайт
Продолжительность : 44 м.
Общий поток : 1963 Кбит/сек
Программа кодирования : VirtualDubModRus 1.5.10.2 (build 2542/release)
Библиотека кодирования : VirtualDubMod build 2542/release
Видео
Идентификатор : 0
Формат : MPEG-4 Visual
Профиль формата : Advanced Simple@L5
Параметр BVOP формата : 2
Параметр QPel формата : Нет
Параметр GMC формата : Без точки перехода
Параметр матрицы формата : Default (H.263)
Идентификатор кодека : XVID
Идентификатор кодека/Подсказка : XviD
Продолжительность : 44 м.
Битрейт : 1564 Кбит/сек
Ширина : 720 пикселей
Высота : 400 пикселей
Соотношение сторон : 16:9
Частота кадров : 25,000 кадров/сек
Цветовое пространство : YUV
Субдискретизация насыщенности : 4:2:0
Битовая глубина : 8 бит
Тип развёртки : Прогрессивная
Метод сжатия : С потерями
Бит/(Пиксели*Кадры) : 0.217
Размер потока : 492 Мбайт (80%)
Библиотека кодирования : XviD 1.2.1 (UTC 2008-12-04)
Аудио #1
Идентификатор : 1
Формат : AC-3
Формат/Информация : Audio Coding 3
Расширение режима : CM (complete main)
Идентификатор кодека : 2000
Продолжительность : 44 м.
Вид битрейта : Постоянный
Битрейт : 192 Кбит/сек
Каналы : 2 канала
Расположение каналов : Front: L R
Частота : 48,0 КГц
Битовая глубина : 16 бит
Метод сжатия : С потерями
Размер потока : 60,4 Мбайт (10%)
Выравнивание : Разделение по промежуткам
Продолжительность промежутка : 40 мс. (1,00 видеокадр)
Время предзагрузки промежутка : 500 мс.
Аудио #2
Идентификатор : 2
Формат : AC-3
Формат/Информация : Audio Coding 3
Расширение режима : CM (complete main)
Идентификатор кодека : 2000
Продолжительность : 44 м.
Вид битрейта : Постоянный
Битрейт : 192 Кбит/сек
Каналы : 2 канала
Расположение каналов : Front: L R
Частота : 48,0 КГц
Битовая глубина : 16 бит
Метод сжатия : С потерями
Размер потока : 60,4 Мбайт (10%)
Выравнивание : Разделение по промежуткам
Продолжительность промежутка : 40 мс. (1,00 видеокадр)
Время предзагрузки промежутка : 500 мс.
Скриншоты:          Время раздачи: 24/7. До первых 5 скачавших.
Rip by dysonegear
Other forum [Profile] [PM]
Display posts from previous:    
Reply to topic

The time now is: Today 07:03

All times are GMT + 3 Hours



You cannot post new topics in this forum
You cannot reply to topics in this forum
You cannot edit your posts in this forum
You cannot delete your posts in this forum
You cannot vote in polls in this forum
You cannot attach files in this forum
You cannot download files in this forum