Сегодня идет свободное скачивание без начисления Download

Александр Заморин | Lightroom – практическая магия (2013) [PCRec]

Ответить на тему
 
Автор
Сообщение

UndegraundMen ®

Стаж: 5 лет 4 месяца

Сообщений: 25866

Торрент-статистика

Пост 03-Дек-2013 22:26

[Цитировать]

Александр Заморин | Lightroom – практическая магия (2013) [PCRec]- Автор (режиссер): Александр Заморин
Название: Lightroom – практическая магия
Год выпуска: 2013
Жанр: Фото
Продолжительность: 09:31:30
Качество видео: PCRec
Видеокодек: AVC
Битрейт видео: ~74,7 kb/s, 25 FPS
Размер кадра: 1600х900
Аудиокодек: AAC
Битрейт аудио: 52,7 kb/s (CBR), 2 Ch, 44100 Hz
Описание:
Это один из самых мощных курсов по профессиональной обработке фотографий в последней версии Lightroom 4.
Программа курса конструировалась больше года, и туда вошли все тайные знания, секреты и фишки, которыми пользуются в своей работе профессионалы.
Он неспроста называется «практическая магия», потому что виртуозное владение программой Lightroom покажется вам настоящим волшебством, а тот результат, который вы будете получать от его использования, вдохновит вас уже с первых уроков.

MediaInfo

Общее
Полное имя : D:\Загрузки\Lightroom\Modul 1\01_Introduction_to RAW_format.mp4
Формат : MPEG-4
Профиль формата : Base Media / Version 2
Идентификатор кодека : mp42
Размер файла : 11,3 Мбайт
Продолжительность : 11 м.
Общий поток : 142 Кбит/сек
Дата кодирования : UTC 2013-03-04 06:12:31
Дата пометки : UTC 2013-03-04 06:12:31
Видео
Идентификатор : 1
Формат : AVC
Формат/Информация : Advanced Video Codec
Профиль формата : [url=mailto:High@L4.0]High@L4.0[/url]
Параметр CABAC формата : Да
Параметр ReFrames формата : 4 кадра
Параметр GOP формата : M=1, N=125
Идентификатор кодека : avc1
Идентификатор кодека/Информация : Advanced Video Coding
Продолжительность : 11 м.
Продолжительность оригинала : 11 м.
Вид битрейта : Переменный
Битрейт : 74,7 Кбит/сек
Ширина : 1600 пикселей
Высота : 900 пикселей
Соотношение сторон : 16:9
Режим частоты кадров : Постоянный
Частота кадров : 25,000 кадров/сек
Стандарт вещания : PAL
Цветовое пространство : YUV
Субдискретизация насыщенности : 4:2:0
Битовая глубина : 8 бит
Тип развёртки : Прогрессивная
Бит/(Пиксели*Кадры) : 0.002
Размер потока : 5,97 Мбайт (53%)
Размер потока оригинала : 6,92 Мбайт (61%)
Язык : English
Дата кодирования : UTC 2013-03-04 06:12:31
Дата пометки : UTC 2013-03-04 06:12:31
mdhd_Duration : 669789
Основные цвета : BT.709
Характеристики трансфера : BT.709
Коэффициенты матрицы : BT.709
Аудио
Идентификатор : 2
Формат : AAC
Формат/Информация : Advanced Audio Codec
Профиль формата : LC
Идентификатор кодека : 40
Продолжительность : 11 м.
Продолжительность оригинала : 11 м.
Вид битрейта : Постоянный
Битрейт : 52,7 Кбит/сек
Каналы : 2 канала
Расположение каналов : Front: L R
Частота : 44,1 КГц
Метод сжатия : С потерями
Размер потока : 4,21 Мбайт (37%)
Размер потока оригинала : 4,21 Мбайт (37%)
Язык : English
Дата кодирования : UTC 2013-03-04 06:12:31
Дата пометки : UTC 2013-03-04 06:12:31
mdhd_Duration : 669746
Скриншоты:
         
Время раздачи: 10:00 до 20:00
Вне форума [Профиль] [ЛС]
Похожие темы
Форум Тема Автор Торрент Отв. Посл. сообщение
./templates/default/images/folder_dl.gif Отечественные мультфильмы Троицын день (Александр Павленко) [2011, Короткометражный, DVDRip] Omen
0 | 1

0 | 529

0

2013-01-22 21:12
Omen Последнее
./templates/default/images/folder_dl.gif Обучающее видео Алекс Мэй | Академия секса (2012) [SATRip] UndegraundMen
2 | 0

0 | 10530

684

2013-09-30 23:05
UndegraundMen Последнее
./templates/default/images/folder_dl.gif Обучающее видео Александр Свет | Профессиональная обработка RAW в Capture One Pro 7 (2013) [PCRec] UndegraundMen
1 | 0

0 | 2745

48

2013-11-28 23:01
UndegraundMen Последнее
./templates/default/images/folder_dl.gif Обучающее видео [Profileschool] Алексей Шадрин | Калибровка принтера: от А до Я (2015) PCRec Omen
1 | 0

0 | 1353

73

2015-03-25 21:19
Omen Последнее
./templates/default/images/folder_dl.gif Разное Алекс Мэй | 11 видов женского оргазма (2013) [PDF] Omen
3 | 0

0 | 5850

104

2015-04-22 09:02
Omen Последнее
./templates/default/images/folder_dl.gif Обучающее видео Алекс Мэй | Как продлить половой акт (2011) [CamRip] Omen
1 | 0

0 | 934

167

2015-05-07 00:07
Omen Последнее
./templates/default/images/folder_dl.gif Обучающее видео Алекс Мэй | Сексуальные позиции. Для максимального наслаждения (2013) [CamRip] Omen
3 | 0

0 | 1360

193

2015-05-07 00:08
Omen Последнее
./templates/default/images/folder_dl.gif Обучающее видео Алекс Мэй - Куннилингус. Секреты мастерства [2012] CamRip Omen
1 | 0

0 | 1472

167

2015-05-07 00:18
Omen Последнее
./templates/default/images/folder_dl.gif Обучающее видео Алекс Мэй | Формула струйных оргазмов (2014) DVDRip Omen
2 | 0

0 | 1072

176

2015-05-07 00:17
Omen Последнее
./templates/default/images/folder_dl.gif Обучающее видео Алекс Мэй - Секреты точки Джи [2008] DVD5 Omen
1 | 0

0 | 1318

211

2015-05-07 09:00
Omen Последнее
Показать сообщения:    
Ответить на тему

Текущее время: Сегодня 02:30

Часовой пояс: GMT + 3



Вы не можете начинать темы
Вы не можете отвечать на сообщения
Вы не можете редактировать свои сообщения
Вы не можете удалять свои сообщения
Вы не можете голосовать в опросах
Вы не можете прикреплять файлы к сообщениям
Вы не можете скачивать файлы