Today is a free download without charge Download

Deep Purple - Perfect Strangers Live 1984 (2013) DVD9

Reply to topic
 
Author
Message

UndegraundMen ®

Longevity: 6 years 9 months

Posts: 25145

Торрент-статистика

Post 18-Nov-2013 11:00

[Quote]

Deep Purple - Perfect Strangers Live 1984 (2013) DVD9- Год выпуска: 2013
Жанр: Hard Rock
Треклист:
01. Highway Star
02. Nobody’s Home
03. Strange Kind Of Woman
04. A Gypsy’s Kiss
05. Perfect Strangers
06. Under The Gun
07. Knocking At Your Back Door
08. Lazy (including Ian Paice drum solo)
09. Child In Time
10. Difficult To Cure
11. Jon Lord Keyboard Solo
12. Space Truckin' (with Ritchie Blackmore guitar solo)
13. Black Night
14. Speed King
15. Smoke On The Water
+ tour documentary
Deep Purple записали новый студийный альбом, "Perfect Strangers", и отправились в с ним в тур. Концерт группы в Австралийском Мельбурне был профессионально заснят на плёнку и является единственной полнометражной записью группы на данный момент.
"Perfect Strangers Live" DVD – с 14 октября принадлежащий Eagle Vision – является ошеломляющим концертом группы в зажигательной форме.
Продолжительность: 01:58:24+00:23:16
Качество видео: DVD9
Видеокодек: MPEG-2
Битрейт видео: ~5086 kb/s
Размер кадра: 720x480 (4:3) NTSC
Audio#1: DTS 6.0, 1510 kb/s
Audio#2: AC-3 6.0, 448 kb/s
Audio#3: AC-3 2.0, 192 kb/s
Из Википедии:
27 апреля 1984 года газета «London Evening Standart» первой сообщила сенсационную новость о возрождении Deep Purple.
Музыканты собрались для работы над новым альбом в мае 1984 года в особняке Lorge, в штате Вермонт, где записывался альбом Rainbow «Bent Out Of Shape». Основная часть музыки была написана Блэкмором. Гиллан и Гловер сочиняли тексты песен. К записи приступили в другом месте — в городке Стоу (Вермонт), куда музыканты переехали 6 июля, а через четыре дня началась работа, которая продолжалась (с перерывами) до 26 августа. Работали не спеша, не забывая об отдыхе, часто устраивая футбольные состязания. 1 сентября в мюнхенской «Tennessee Tonstudio» началось микширование альбома. Продюсером был Роджер Гловер. Первоначально альбом хотели назвать «The Sound Of Music», но 20 сентября сменили его на Perfect Strangers («Совсем чужие»).
22 сентября «The Daily Mirror» опубликовала первую официальную фотографию возрожденной группы, а 5 октября в Бедфорде (Англия) началась подготовка к предстоящему туру.
В начале октября Perfect Strangers был смикширован, а 16 ноября поступил в продажу, поднявшись до 5-го места в Британии и 17-го — в США.
Поскольку начало гастролей выпадало на зиму, то решено было начать тур с Австралии. В Британии группа дала лишь один концерт — на фестивале в Небуорте. В общей сложности возрожденная группа сыграла около 100 концертов.
Но после выхода The House of Blue Light (1987) стало ясно, что союз продлится недолго.
Скриншоты:

Скриншоты меню:

         
           

Ещё скриншоты

         

Обложка и накатка+inside:

MediaInfo

Общее
Полное имя : D:\DP\VIDEO_TS\VTS_01_1.VOB
Формат : MPEG-PS
Размер файла : 1024 Мбайт
Продолжительность : 19 м.
Режим общего битрейта : Переменный
Общий поток : 7383 Кбит/сек
Видео
Идентификатор : 224 (0xE0)
Формат : MPEG Video
Версия формата : Version 2
Профиль формата : Main@Main
Параметр BVOP формата : Да
Параметр матрицы формата : Выборочная
Параметр GOP формата : Variable
Продолжительность : 19 м.
Вид битрейта : Переменный
Битрейт : 5086 Кбит/сек
Ширина : 720 пикселей
Высота : 480 пикселей
Соотношение сторон : 4:3
Частота кадров : 29,970 кадров/сек
Стандарт вещания : NTSC
Цветовое пространство : YUV
Субдискретизация насыщенности : 4:2:0
Битовая глубина : 8 бит
Метод сжатия : С потерями
Бит/(Пиксели*Кадры) : 0.491
Временной код первого кадра : 01:00:00:00
Оригинал временного кода : Group of pictures header
Размер потока : 705 Мбайт (69%)
Аудио #1
Идентификатор : 189 (0xBD)-128 (0x80)
Формат : AC-3
Формат/Информация : Audio Coding 3
Расширение режима : CM (complete main)
Параметр Endianness формата : Big
Режим смешивания : DVD-Video
Продолжительность : 19 м.
Вид битрейта : Постоянный
Битрейт : 192 Кбит/сек
Каналы : 2 канала
Расположение каналов : Front: L R
Частота : 48,0 КГц
Битовая глубина : 16 бит
Метод сжатия : С потерями
Размер потока : 26,6 Мбайт (3%)
Аудио #2
Идентификатор : 189 (0xBD)-129 (0x81)
Формат : AC-3
Формат/Информация : Audio Coding 3
Расширение режима : CM (complete main)
Параметр Endianness формата : Big
Режим смешивания : DVD-Video
Продолжительность : 19 м.
Вид битрейта : Постоянный
Битрейт : 448 Кбит/сек
Каналы : 6 каналов
Расположение каналов : Front: L C R, Side: L R, LFE
Частота : 48,0 КГц
Битовая глубина : 16 бит
Метод сжатия : С потерями
Размер потока : 62,1 Мбайт (6%)
Аудио #3
Идентификатор : 189 (0xBD)-138 (0x8A)
Формат : DTS
Формат/Информация : Digital Theater Systems
Режим : 16
Параметр Endianness формата : Big
Режим смешивания : DVD-Video
Продолжительность : 19 м.
Вид битрейта : Постоянный
Битрейт : 1510 Кбит/сек
Каналы : 6 каналов
Расположение каналов : Front: L C R, Side: L R, LFE
Частота : 48,0 КГц
Битовая глубина : 16 бит
Метод сжатия : С потерями
Размер потока : 209 Мбайт (20%)
Время раздачи: 18:00 - 23:00
Other forum [Profile] [PM]
Display posts from previous:    
Reply to topic

The time now is: Today 12:04

All times are GMT + 3 Hours



You cannot post new topics in this forum
You cannot reply to topics in this forum
You cannot edit your posts in this forum
You cannot delete your posts in this forum
You cannot vote in polls in this forum
You cannot attach files in this forum
You cannot download files in this forum