Today is a free download without charge Download

(R&B, Pop) Beyonce - 4 (Sony Music) WEB - 2011, FLAC (tracks+.cue), lossless

Reply to topic
 
Author
Message

Paullo ®

Gender:

Longevity: 9 years 5 months

Posts: 393

Location: деактивировано, причина: - Последний визит: 2017-06-22 darkos_bot 12.06.19г

Торрент-статистика

Post 01-Jul-2011 10:38

[Quote]

Beyonce - 4
Жанр: R&B, Pop
Страна-производитель диска: Sony Music
Год издания диска: 2011
Аудиокодек: FLAC (*.flac)
Тип рипа: tracks+.cue
Битрейт аудио: lossless
Продолжительность: 00:46:32
Источник (релизер): WEB
Наличие сканов в содержимом раздачи: нет
Треклист:
01. 1+1 (04:33)
02. I Care (03:59)
03. I Miss You (02:59)
04. Best Thing I Never Had (04:13)
05. Party Ft. Andre 3000 And Kanye West (04:5)
06. Rather Die Young (03:42)
07. Start Over (03:19)
08. Love On Top (04:27)
09. Countdown (03:33)
10. End Of Time (03:44)
11. I Was Here (03:59)
12. Run The World (Girls) (03:56)

Лог создания рипа

Exact Audio Copy V1.0 beta 2 from 29. April 2011
EAC extraction logfile from 27. June 2011, 11:30
Beyonce / 4
Used drive : PLEXTOR CD-R PREMIUM2 Adapter: 0 ID: 0
Read mode : Secure
Utilize accurate stream : Yes
Defeat audio cache : Yes
Make use of C2 pointers : No
Read offset correction : 30
Overread into Lead-In and Lead-Out : Yes
Fill up missing offset samples with silence : Yes
Delete leading and trailing silent blocks : No
Null samples used in CRC calculations : Yes
Used interface : Native Win32 interface for Win NT & 2000
Gap handling : Appended to previous track
Used output format : User Defined Encoder
Selected bitrate : 1024 kBit/s
Quality : High
Add ID3 tag : No
Command line compressor : C:\Program Files (x86)\Exact Audio Copy\FLAC\FLAC.EXE
Additional command line options : -8 -V -T "ARTIST=%artist%" -T "TITLE=%title%" -T "ALBUM=%albumtitle%" -T "DATE=%year%" -T "TRACKNUMBER=%tracknr%" -T "GENRE=%genre%" %source%
TOC of the extracted CD
Track | Start | Length | Start sector | End sector
---------------------------------------------------------
1 | 0:00.00 | 4:33.66 | 0 | 20540
2 | 4:33.66 | 3:59.35 | 20541 | 38500
3 | 8:33.26 | 2:59.05 | 38501 | 51930
4 | 11:32.31 | 4:13.56 | 51931 | 70961
5 | 15:46.12 | 4:05.36 | 70962 | 89372
6 | 19:51.48 | 3:42.36 | 89373 | 106058
7 | 23:34.09 | 3:19.08 | 106059 | 120991
8 | 26:53.17 | 4:27.31 | 120992 | 141047
9 | 31:20.48 | 3:33.29 | 141048 | 157051
10 | 34:54.02 | 3:43.74 | 157052 | 173850
11 | 38:38.01 | 3:59.16 | 173851 | 191791
12 | 42:37.17 | 3:56.07 | 191792 | 209498
Track 1
Filename D:\EAC Rips\Beyonce - 4 (2011) [FLAC]\01 - 1+1.wav
Pre-gap length 0:00:02.00
Peak level 99.8 %
Extraction speed 1.2 X
Track quality 99.9 %
Test CRC 8C9C5641
Copy CRC 8C9C5641
Track not present in AccurateRip database
Copy OK
Track 2
Filename D:\EAC Rips\Beyonce - 4 (2011) [FLAC]\02 - I Care.wav
Peak level 99.8 %
Extraction speed 1.3 X
Track quality 100.0 %
Test CRC C2DDBDBE
Copy CRC C2DDBDBE
Track not present in AccurateRip database
Copy OK
Track 3
Filename D:\EAC Rips\Beyonce - 4 (2011) [FLAC]\03 - I Miss You.wav
Peak level 99.8 %
Extraction speed 1.3 X
Track quality 100.0 %
Test CRC 26328CB9
Copy CRC 26328CB9
Track not present in AccurateRip database
Copy OK
Track 4
Filename D:\EAC Rips\Beyonce - 4 (2011) [FLAC]\04 - Best Thing I Never Had.wav
Peak level 99.8 %
Extraction speed 1.3 X
Track quality 100.0 %
Test CRC 99C5B73F
Copy CRC 99C5B73F
Track not present in AccurateRip database
Copy OK
Track 5
Filename D:\EAC Rips\Beyonce - 4 (2011) [FLAC]\05 - Party.wav
Peak level 99.8 %
Extraction speed 1.3 X
Track quality 100.0 %
Test CRC 37595A7F
Copy CRC 37595A7F
Track not present in AccurateRip database
Copy OK
Track 6
Filename D:\EAC Rips\Beyonce - 4 (2011) [FLAC]\06 - Rather Die Young.wav
Peak level 99.8 %
Extraction speed 1.3 X
Track quality 100.0 %
Test CRC E7424662
Copy CRC E7424662
Track not present in AccurateRip database
Copy OK
Track 7
Filename D:\EAC Rips\Beyonce - 4 (2011) [FLAC]\07 - Start Over.wav
Peak level 99.8 %
Extraction speed 1.2 X
Track quality 100.0 %
Test CRC 5CE00C2A
Copy CRC 5CE00C2A
Track not present in AccurateRip database
Copy OK
Track 8
Filename D:\EAC Rips\Beyonce - 4 (2011) [FLAC]\08 - Love On Top.wav
Peak level 99.8 %
Extraction speed 1.3 X
Track quality 100.0 %
Test CRC 8DB8F2C3
Copy CRC 8DB8F2C3
Track not present in AccurateRip database
Copy OK
Track 9
Filename D:\EAC Rips\Beyonce - 4 (2011) [FLAC]\09 - Countdown.wav
Peak level 99.8 %
Extraction speed 1.3 X
Track quality 100.0 %
Test CRC 47FA6B2E
Copy CRC 47FA6B2E
Track not present in AccurateRip database
Copy OK
Track 10
Filename D:\EAC Rips\Beyonce - 4 (2011) [FLAC]\10 - End Of Time.wav
Pre-gap length 0:00:01.18
Peak level 99.8 %
Extraction speed 1.3 X
Track quality 100.0 %
Test CRC 38CD498F
Copy CRC 38CD498F
Track not present in AccurateRip database
Copy OK
Track 11
Filename D:\EAC Rips\Beyonce - 4 (2011) [FLAC]\11 - I Was Here.wav
Peak level 99.8 %
Extraction speed 1.2 X
Track quality 100.0 %
Test CRC 1F8A3411
Copy CRC 1F8A3411
Track not present in AccurateRip database
Copy OK
Track 12
Filename D:\EAC Rips\Beyonce - 4 (2011) [FLAC]\12 - Run The World (Girls).wav
Peak level 99.8 %
Extraction speed 1.2 X
Track quality 100.0 %
Test CRC F7358DF9
Copy CRC F7358DF9
Track not present in AccurateRip database
Copy OK
None of the tracks are present in the AccurateRip database
No errors occurred
End of status report
==== Log checksum 992B9B3286970B86DCCC439A6C0C88F204B43C4BC6B91F550AC25BB125FDAE00 ====

Содержание индексной карты (.CUE)

REM GENRE Soul
REM DATE 2011
REM DISCID AA0AE90C
REM COMMENT "ExactAudioCopy v1.0b2"
PERFORMER "Beyonce"
TITLE "4"
FILE "01 - 1+1.wav" WAVE
TRACK 01 AUDIO
TITLE "1+1"
PERFORMER "Beyonce"
INDEX 01 00:00:00
FILE "02 - I Care.wav" WAVE
TRACK 02 AUDIO
TITLE "I Care"
PERFORMER "Beyonce"
INDEX 01 00:00:00
FILE "03 - I Miss You.wav" WAVE
TRACK 03 AUDIO
TITLE "I Miss You"
PERFORMER "Beyonce"
INDEX 01 00:00:00
FILE "04 - Best Thing I Never Had.wav" WAVE
TRACK 04 AUDIO
TITLE "Best Thing I Never Had"
PERFORMER "Beyonce"
INDEX 01 00:00:00
FILE "05 - Party.wav" WAVE
TRACK 05 AUDIO
TITLE "Party"
PERFORMER "Beyonce"
INDEX 01 00:00:00
FILE "06 - Rather Die Young.wav" WAVE
TRACK 06 AUDIO
TITLE "Rather Die Young"
PERFORMER "Beyonce"
INDEX 01 00:00:00
FILE "07 - Start Over.wav" WAVE
TRACK 07 AUDIO
TITLE "Start Over"
PERFORMER "Beyonce"
INDEX 01 00:00:00
FILE "08 - Love On Top.wav" WAVE
TRACK 08 AUDIO
TITLE "Love On Top"
PERFORMER "Beyonce"
INDEX 01 00:00:00
FILE "09 - Countdown.wav" WAVE
TRACK 09 AUDIO
TITLE "Countdown"
PERFORMER "Beyonce"
INDEX 01 00:00:00
TRACK 10 AUDIO
TITLE "End Of Time"
PERFORMER "Beyonce"
INDEX 00 03:32:11
FILE "10 - End Of Time.wav" WAVE
INDEX 01 00:00:00
FILE "11 - I Was Here.wav" WAVE
TRACK 11 AUDIO
TITLE "I Was Here"
PERFORMER "Beyonce"
INDEX 01 00:00:00
FILE "12 - Run The World (Girls).wav" WAVE
TRACK 12 AUDIO
TITLE "Run The World (Girls)"
PERFORMER "Beyonce"
INDEX 01 00:00:00

*nfo

---------------------------------------------------------------------
Beyonce - 4
---------------------------------------------------------------------
Artist...............: Beyonce
Album................: 4
Genre................: Soul
Source...............: CD
Year.................: 2011
Ripper...............: Exact Audio Copy (Secure mode) & PLEXTOR CD-R PREMIUM2
Codec................: Free Lossless Audio Codec (FLAC)
Version..............: reference libFLAC 1.2.1 20070917
Quality..............: Lossless, (avg. compression: 65 Перегрузка
Channels.............: Stereo / 44100 HZ / 16 Bit
Tags.................: VorbisComment
Included.............: NFO, MD5, M3U, LOG, CUE
---------------------------------------------------------------------
Tracklisting
---------------------------------------------------------------------
1. (00:04:34) - (59.67%) Beyonce - 1+1
2. (00:03:59) - (62.63%) Beyonce - I Care
3. (00:02:59) - (54.64%) Beyonce - I Miss You
4. (00:04:14) - (64.53%) Beyonce - Best Thing I Never Had
5. (00:04:05) - (68.82%) Beyonce - Party
6. (00:03:42) - (58.22%) Beyonce - Rather Die Young
7. (00:03:19) - (65.45%) Beyonce - Start Over
8. (00:04:27) - (70.17%) Beyonce - Love On Top
9. (00:03:33) - (73.15%) Beyonce - Countdown
10. (00:03:44) - (67.17%) Beyonce - End Of Time
11. (00:03:59) - (63.10%) Beyonce - I Was Here
12. (00:03:56) - (74.54%) Beyonce - Run The World (Girls)
Playing Time.........: 00:46:33
Total Size...........: 307.00 MB
NFO generated on.....: 6/27/2011 11:32:44

_________________
сами мы не местные...


Last edited by Paullo on 2011-07-01 10:45; edited 1 time in total
Other forum [Profile] [PM]
Display posts from previous:    
Reply to topic

The time now is: Today 16:59

All times are GMT + 3 Hours



You cannot post new topics in this forum
You cannot reply to topics in this forum
You cannot edit your posts in this forum
You cannot delete your posts in this forum
You cannot vote in polls in this forum
You cannot attach files in this forum
You cannot download files in this forum