Today is a free download without charge Download

Премия Fuzz (2007) DVD5

Reply to topic
 
Author
Message

UndegraundMen ®

Longevity: 6 years 9 months

Posts: 25145

Торрент-статистика

Post 05-Oct-2013 23:09

[Quote]

Премия Fuzz (2007) DVD5- Год выпуска: 2007
Жанр: Rock
Описание фильма:
Ежегодный концерт на премию музыкального журнала FUZZ.
В раздаче концерт, состоявшийся 14 апреля 2007 в Петербургском СКК.
Треклист:
01. Ария - Викинг
02. Ария - Крещение огнем
03. Ария - Штиль
04. Мельница - Травушка
05. Znaki - Побежали
06. Znaki - Мама
07. Лена Тэ + Илья Черт - Солнце, дорога и мы
08. Lumen - Дыши
09. Lumen - 6 миллиардов
10. Илья Черт - Нет вестей с небес
11. Море! - По ветру
12. Океан Ельзи - Твой день
13. Океан Ельзи - Друг
14. Океан Ельзи - Все будет добре
15. Тантра - Волки
16. Пелагея - Рано-рано
17. Пелагея - Нюркина песня
18. Провода - Про кино
19. Мумий Тролль - С Новым Годом, крошка
20. Мумий Тролль - Кораллы
21. Мумий Тролль - Владивосток 2000
Дата выхода DVD релиза: 2007 (приложение к журналу FUZZ)
Дополнительные материалы: есть (музыканты против наркотиков)
Меню: статичное с элементами анимации, разбивка на главы по трекам
Продолжительность: 01:33:22 (концерт) + 00:03:15 (доп. материал)
Качество видео: DVD5
Видеокодек: MPEG-2
Битрейт видео: ~VBR (до 9000 kb/s)
Размер кадра: 720x576 PAL 4:3
Аудиокодек: AC3
Битрейт аудио: 192 kbps, 2/0 (L,R) ch

DVDInfo:

Title: Премия FUZZ 2007
Size: 2.90 Gb ( 3 041 852,00 KBytes ) - DVD-5
Enabled regions: 1, 2, 3, 4, 5, 6, 7, 8
VTS_01 :
Play Length: 00:03:15
Video: PAL 4:3 (720x576) VBR
Audio:
  • Not specified (Dolby AC3, 2 ch)
    VTS_02 :
    Play Length: 00:00:10
    Video: PAL 4:3 (720x576) VBR
    Audio:
  • English (Dolby AC3, 2 ch)
    VTS_03 :
    Play Length: 01:33:22
    Video: PAL 4:3 (720x576) VBR
    Audio:
  • English (Dolby AC3, 2 ch)
    * Menus Information *
    VIDEO_TS Menu
    Video:
  • PAL 4:3 (720x576) VBR
    English Language Unit :
  • Title Menu
    VTS_01 Menu
    Video:
  • PAL 4:3 (720x576) VBR
    English Language Unit :
  • Root Menu
    VTS_02 Menu
    Video:
  • PAL 4:3 (720x576) VBR
    English Language Unit :
  • Root Menu
    VTS_03 Menu
    Video:
  • PAL 4:3 (720x576) VBR
    English Language Unit :
  • Root Menu
    Audio #1: AC3, 2/0 (L,R) ch, 192 kbps, Delay 0 mSec

MediaInfo:

Общее
Полное имя : C:\Users\9a33\Desktop\Премия FUZZ 2007\VIDEO_TS\VIDEO_TS.BUP
Формат : DVD Video
Профиль формата : Menu
Размер файла : 22,0 Кбайт
Режим общего битрейта : Переменный
Видео
Идентификатор : 224 (0xE0)
Формат : MPEG Video
Версия формата : Version 2
Вид битрейта : Переменный
Ширина : 720 пикселей
Высота : 576 пикселей
Соотношение сторон : 4:3
Частота кадров : 25,000 кадров/сек
Стандарт вещания : PAL
Метод сжатия : С потерями
Текст
Формат : RLE
Формат/Информация : Run-length encoding
Битовая глубина : 2 бит
Общее
Полное имя : C:\Users\9a33\Desktop\Премия FUZZ 2007\VIDEO_TS\VIDEO_TS.IFO
Формат : DVD Video
Профиль формата : Menu
Размер файла : 22,0 Кбайт
Режим общего битрейта : Переменный
Видео
Идентификатор : 224 (0xE0)
Формат : MPEG Video
Версия формата : Version 2
Вид битрейта : Переменный
Ширина : 720 пикселей
Высота : 576 пикселей
Соотношение сторон : 4:3
Частота кадров : 25,000 кадров/сек
Стандарт вещания : PAL
Метод сжатия : С потерями
Текст
Формат : RLE
Формат/Информация : Run-length encoding
Битовая глубина : 2 бит
Общее
Полное имя : C:\Users\9a33\Desktop\Премия FUZZ 2007\VIDEO_TS\VIDEO_TS.VOB
Формат : MPEG-PS
Размер файла : 10,0 Кбайт
Продолжительность : 40 мс.
Общий поток : 2048 Кбит/сек
Видео
Идентификатор : 224 (0xE0)
Формат : MPEG Video
Версия формата : Version 2
Профиль формата : Main@Main
Параметр BVOP формата : Нет
Параметр матрицы формата : Выборочная
Продолжительность : 40 мс.
Максимальный битрейт : 9000 Кбит/сек
Ширина : 720 пикселей
Высота : 576 пикселей
Соотношение сторон : 4:3
Частота кадров : 25,000 кадров/сек
Стандарт вещания : PAL
Цветовое пространство : YUV
Субдискретизация насыщенности : 4:2:0
Битовая глубина : 8 бит
Тип развёртки : Прогрессивная
Порядок развёртки : Верхнее поле первое
Метод сжатия : С потерями
Временной код первого кадра : 00:00:00:00
Оригинал временного кода : Group of pictures header
Основные цвета : BT.601 NTSC
Характеристики трансфера : BT.601
Коэффициенты матрицы : BT.601
Меню
Общее
Полное имя : C:\Users\9a33\Desktop\Премия FUZZ 2007\VIDEO_TS\VTS_01_0.BUP
Формат : DVD Video
Профиль формата : Program
Размер файла : 18,0 Кбайт
Продолжительность : 3 м. 15 с.
Режим общего битрейта : Переменный
Общий поток : 754 бит/сек
Видео
Идентификатор : 224 (0xE0)
Формат : MPEG Video
Версия формата : Version 2
Продолжительность : 3 м. 15 с.
Вид битрейта : Переменный
Ширина : 720 пикселей
Высота : 576 пикселей
Соотношение сторон : 4:3
Частота кадров : 25,000 кадров/сек
Стандарт вещания : PAL
Метод сжатия : С потерями
Аудио
Идентификатор : 128 (0x80)
Формат : AC-3
Формат/Информация : Audio Coding 3
Продолжительность : 3 м. 15 с.
Каналы : 2 канала
Частота : 48,0 КГц
Метод сжатия : С потерями
Меню
Продолжительность : 3 м. 15 с.
00:00:00.000 : Chapter 1
List (Audio) : 0
Общее
Полное имя : C:\Users\9a33\Desktop\Премия FUZZ 2007\VIDEO_TS\VTS_01_0.IFO
Формат : DVD Video
Профиль формата : Program
Размер файла : 18,0 Кбайт
Продолжительность : 3 м. 15 с.
Режим общего битрейта : Переменный
Общий поток : 754 бит/сек
Видео
Идентификатор : 224 (0xE0)
Формат : MPEG Video
Версия формата : Version 2
Продолжительность : 3 м. 15 с.
Вид битрейта : Переменный
Ширина : 720 пикселей
Высота : 576 пикселей
Соотношение сторон : 4:3
Частота кадров : 25,000 кадров/сек
Стандарт вещания : PAL
Метод сжатия : С потерями
Аудио
Идентификатор : 128 (0x80)
Формат : AC-3
Формат/Информация : Audio Coding 3
Продолжительность : 3 м. 15 с.
Каналы : 2 канала
Частота : 48,0 КГц
Метод сжатия : С потерями
Меню
Продолжительность : 3 м. 15 с.
00:00:00.000 : Chapter 1
List (Audio) : 0
Общее
Полное имя : C:\Users\9a33\Desktop\Премия FUZZ 2007\VIDEO_TS\VTS_01_0.VOB
Формат : MPEG-PS
Размер файла : 4,30 Мбайт
Продолжительность : 4 с. 373 мс.
Общий поток : 8246 Кбит/сек
Видео
Идентификатор : 224 (0xE0)
Формат : MPEG Video
Версия формата : Version 2
Профиль формата : Main@Main
Параметр BVOP формата : Да
Параметр матрицы формата : По умолчанию
Параметр GOP формата : M=3, N=12
Продолжительность : 4 с. 373 мс.
Битрейт : 8082 Кбит/сек
Ширина : 720 пикселей
Высота : 576 пикселей
Соотношение сторон : 4:3
Частота кадров : 25,000 кадров/сек
Стандарт вещания : PAL
Цветовое пространство : YUV
Субдискретизация насыщенности : 4:2:0
Битовая глубина : 8 бит
Метод сжатия : С потерями
Бит/(Пиксели*Кадры) : 0.780
Размер потока : 4,20 Мбайт (98%)
Основные цвета : BT.601 NTSC
Характеристики трансфера : BT.601
Коэффициенты матрицы : BT.601
Текст
Идентификатор : 189 (0xBD)-32 (0x20)
Формат : RLE
Формат/Информация : Run-length encoding
Режим смешивания : DVD-Video
Задержка видео : 62 мс.
Меню
Общее
Полное имя : C:\Users\9a33\Desktop\Премия FUZZ 2007\VIDEO_TS\VTS_01_1.VOB
Формат : MPEG-PS
Размер файла : 99,8 Мбайт
Продолжительность : 3 м. 15 с.
Общий поток : 4280 Кбит/сек
Видео
Идентификатор : 224 (0xE0)
Формат : MPEG Video
Версия формата : Version 2
Профиль формата : Main@Main
Параметр BVOP формата : Да
Параметр матрицы формата : Выборочная
Параметр GOP формата : Variable
Продолжительность : 3 м. 15 с.
Битрейт : 4000 Кбит/сек
Ширина : 720 пикселей
Высота : 576 пикселей
Соотношение сторон : 4:3
Частота кадров : 25,000 кадров/сек
Стандарт вещания : PAL
Цветовое пространство : YUV
Субдискретизация насыщенности : 4:2:0
Битовая глубина : 8 бит
Тип развёртки : Чересстрочная
Порядок развёртки : Нижнее поле первое
Метод сжатия : С потерями
Бит/(Пиксели*Кадры) : 0.386
Временной код первого кадра : 00:00:00:00
Оригинал временного кода : Group of pictures header
Размер потока : 93,4 Мбайт (94%)
Аудио
Идентификатор : 189 (0xBD)-128 (0x80)
Формат : AC-3
Формат/Информация : Audio Coding 3
Расширение режима : CM (complete main)
Параметр Endianness формата : Big
Режим смешивания : DVD-Video
Продолжительность : 3 м. 15 с.
Вид битрейта : Постоянный
Битрейт : 192 Кбит/сек
Каналы : 2 канала
Расположение каналов : Front: L R
Частота : 48,0 КГц
Битовая глубина : 16 бит
Метод сжатия : С потерями
Размер потока : 4,48 Мбайт (4%)
Меню
Общее
Полное имя : C:\Users\9a33\Desktop\Премия FUZZ 2007\VIDEO_TS\VTS_02_0.BUP
Формат : DVD Video
Профиль формата : Program
Размер файла : 18,0 Кбайт
Продолжительность : 10 с.
Режим общего битрейта : Переменный
Общий поток : 14,2 Кбит/сек
Видео
Идентификатор : 224 (0xE0)
Формат : MPEG Video
Версия формата : Version 2
Продолжительность : 10 с.
Вид битрейта : Переменный
Ширина : 720 пикселей
Высота : 576 пикселей
Соотношение сторон : 4:3
Частота кадров : 25,000 кадров/сек
Стандарт вещания : PAL
Метод сжатия : С потерями
Аудио
Идентификатор : 128 (0x80)
Формат : AC-3
Формат/Информация : Audio Coding 3
Продолжительность : 10 с.
Каналы : 2 канала
Частота : 48,0 КГц
Метод сжатия : С потерями
Язык : English
Меню
Продолжительность : 10 с.
00:00:00.000 : Chapter 1
List (Audio) : 0
Общее
Полное имя : C:\Users\9a33\Desktop\Премия FUZZ 2007\VIDEO_TS\VTS_02_0.IFO
Формат : DVD Video
Профиль формата : Program
Размер файла : 18,0 Кбайт
Продолжительность : 10 с.
Режим общего битрейта : Переменный
Общий поток : 14,2 Кбит/сек
Видео
Идентификатор : 224 (0xE0)
Формат : MPEG Video
Версия формата : Version 2
Продолжительность : 10 с.
Вид битрейта : Переменный
Ширина : 720 пикселей
Высота : 576 пикселей
Соотношение сторон : 4:3
Частота кадров : 25,000 кадров/сек
Стандарт вещания : PAL
Метод сжатия : С потерями
Аудио
Идентификатор : 128 (0x80)
Формат : AC-3
Формат/Информация : Audio Coding 3
Продолжительность : 10 с.
Каналы : 2 канала
Частота : 48,0 КГц
Метод сжатия : С потерями
Язык : English
Меню
Продолжительность : 10 с.
00:00:00.000 : Chapter 1
List (Audio) : 0
Общее
Полное имя : C:\Users\9a33\Desktop\Премия FUZZ 2007\VIDEO_TS\VTS_02_0.VOB
Формат : MPEG-PS
Размер файла : 10,0 Кбайт
Продолжительность : 40 мс.
Общий поток : 2048 Кбит/сек
Видео
Идентификатор : 224 (0xE0)
Формат : MPEG Video
Версия формата : Version 2
Профиль формата : Main@Main
Параметр BVOP формата : Нет
Параметр матрицы формата : Выборочная
Продолжительность : 40 мс.
Максимальный битрейт : 9000 Кбит/сек
Ширина : 720 пикселей
Высота : 576 пикселей
Соотношение сторон : 4:3
Частота кадров : 25,000 кадров/сек
Стандарт вещания : PAL
Цветовое пространство : YUV
Субдискретизация насыщенности : 4:2:0
Битовая глубина : 8 бит
Тип развёртки : Прогрессивная
Порядок развёртки : Верхнее поле первое
Метод сжатия : С потерями
Временной код первого кадра : 00:00:00:00
Оригинал временного кода : Group of pictures header
Основные цвета : BT.601 NTSC
Характеристики трансфера : BT.601
Коэффициенты матрицы : BT.601
Меню
Общее
Полное имя : C:\Users\9a33\Desktop\Премия FUZZ 2007\VIDEO_TS\VTS_02_1.VOB
Формат : MPEG-PS
Размер файла : 9,93 Мбайт
Продолжительность : 10 с.
Общий поток : 8315 Кбит/сек
Видео
Идентификатор : 224 (0xE0)
Формат : MPEG Video
Версия формата : Version 2
Профиль формата : Main@Main
Параметр BVOP формата : Да
Параметр матрицы формата : По умолчанию
Параметр GOP формата : Variable
Продолжительность : 10 с.
Битрейт : 8000 Кбит/сек
Ширина : 720 пикселей
Высота : 576 пикселей
Соотношение сторон : 4:3
Частота кадров : 25,000 кадров/сек
Стандарт вещания : PAL
Цветовое пространство : YUV
Субдискретизация насыщенности : 4:2:0
Битовая глубина : 8 бит
Тип развёртки : Чересстрочная
Порядок развёртки : Нижнее поле первое
Метод сжатия : С потерями
Бит/(Пиксели*Кадры) : 0.772
Временной код первого кадра : 00:00:00:00
Оригинал временного кода : Group of pictures header
Размер потока : 9,49 Мбайт (96%)
Аудио
Идентификатор : 189 (0xBD)-128 (0x80)
Формат : AC-3
Формат/Информация : Audio Coding 3
Расширение режима : CM (complete main)
Параметр Endianness формата : Big
Режим смешивания : DVD-Video
Продолжительность : 10 с.
Вид битрейта : Постоянный
Битрейт : 192 Кбит/сек
Каналы : 2 канала
Расположение каналов : Front: L R
Частота : 48,0 КГц
Битовая глубина : 16 бит
Метод сжатия : С потерями
Размер потока : 235 Кбайт (2%)
Меню
Общее
Полное имя : C:\Users\9a33\Desktop\Премия FUZZ 2007\VIDEO_TS\VTS_03_0.BUP
Формат : DVD Video
Профиль формата : Program
Размер файла : 56,0 Кбайт
Продолжительность : 1 ч. 33 м.
Режим общего битрейта : Переменный
Общий поток : 82 бит/сек
Видео
Идентификатор : 224 (0xE0)
Формат : MPEG Video
Версия формата : Version 2
Продолжительность : 1 ч. 33 м.
Вид битрейта : Переменный
Ширина : 720 пикселей
Высота : 576 пикселей
Соотношение сторон : 4:3
Частота кадров : 25,000 кадров/сек
Стандарт вещания : PAL
Метод сжатия : С потерями
Аудио
Идентификатор : 128 (0x80)
Формат : AC-3
Формат/Информация : Audio Coding 3
Продолжительность : 1 ч. 33 м.
Каналы : 2 канала
Частота : 48,0 КГц
Метод сжатия : С потерями
Язык : English
Меню
Продолжительность : 1 ч. 33 м.
00:00:00.000 : Chapter 1
00:00:55.120 : Chapter 2
00:05:30.480 : Chapter 3
00:10:56.000 : Chapter 4
00:17:08.360 : Chapter 5
00:21:23.040 : Chapter 6
00:24:55.080 : Chapter 7
00:28:27.400 : Chapter 8
00:33:00.240 : Chapter 9
00:36:04.520 : Chapter 10
00:39:58.440 : Chapter 11
00:44:16.840 : Chapter 12
00:48:04.960 : Chapter 13
00:52:15.320 : Chapter 14
00:58:29.240 : Chapter 15
01:02:19.160 : Chapter 16
01:06:56.360 : Chapter 17
01:11:34.320 : Chapter 18
01:15:08.840 : Chapter 19
01:19:43.560 : Chapter 20
01:24:51.360 : Chapter 21
01:29:57.960 : Chapter 22
List (Audio) : 0
Общее
Полное имя : C:\Users\9a33\Desktop\Премия FUZZ 2007\VIDEO_TS\VTS_03_0.IFO
Формат : DVD Video
Профиль формата : Program
Размер файла : 56,0 Кбайт
Продолжительность : 1 ч. 33 м.
Режим общего битрейта : Переменный
Общий поток : 82 бит/сек
Видео
Идентификатор : 224 (0xE0)
Формат : MPEG Video
Версия формата : Version 2
Продолжительность : 1 ч. 33 м.
Вид битрейта : Переменный
Ширина : 720 пикселей
Высота : 576 пикселей
Соотношение сторон : 4:3
Частота кадров : 25,000 кадров/сек
Стандарт вещания : PAL
Метод сжатия : С потерями
Аудио
Идентификатор : 128 (0x80)
Формат : AC-3
Формат/Информация : Audio Coding 3
Продолжительность : 1 ч. 33 м.
Каналы : 2 канала
Частота : 48,0 КГц
Метод сжатия : С потерями
Язык : English
Меню
Продолжительность : 1 ч. 33 м.
00:00:00.000 : Chapter 1
00:00:55.120 : Chapter 2
00:05:30.480 : Chapter 3
00:10:56.000 : Chapter 4
00:17:08.360 : Chapter 5
00:21:23.040 : Chapter 6
00:24:55.080 : Chapter 7
00:28:27.400 : Chapter 8
00:33:00.240 : Chapter 9
00:36:04.520 : Chapter 10
00:39:58.440 : Chapter 11
00:44:16.840 : Chapter 12
00:48:04.960 : Chapter 13
00:52:15.320 : Chapter 14
00:58:29.240 : Chapter 15
01:02:19.160 : Chapter 16
01:06:56.360 : Chapter 17
01:11:34.320 : Chapter 18
01:15:08.840 : Chapter 19
01:19:43.560 : Chapter 20
01:24:51.360 : Chapter 21
01:29:57.960 : Chapter 22
List (Audio) : 0
Общее
Полное имя : C:\Users\9a33\Desktop\Премия FUZZ 2007\VIDEO_TS\VTS_03_0.VOB
Формат : MPEG-PS
Размер файла : 10,0 Кбайт
Продолжительность : 40 мс.
Общий поток : 2048 Кбит/сек
Видео
Идентификатор : 224 (0xE0)
Формат : MPEG Video
Версия формата : Version 2
Профиль формата : Main@Main
Параметр BVOP формата : Нет
Параметр матрицы формата : Выборочная
Продолжительность : 40 мс.
Максимальный битрейт : 9000 Кбит/сек
Ширина : 720 пикселей
Высота : 576 пикселей
Соотношение сторон : 4:3
Частота кадров : 25,000 кадров/сек
Стандарт вещания : PAL
Цветовое пространство : YUV
Субдискретизация насыщенности : 4:2:0
Битовая глубина : 8 бит
Тип развёртки : Прогрессивная
Порядок развёртки : Верхнее поле первое
Метод сжатия : С потерями
Временной код первого кадра : 00:00:00:00
Оригинал временного кода : Group of pictures header
Основные цвета : BT.601 NTSC
Характеристики трансфера : BT.601
Коэффициенты матрицы : BT.601
Меню
Общее
Полное имя : C:\Users\9a33\Desktop\Премия FUZZ 2007\VIDEO_TS\VTS_03_1.VOB
Формат : MPEG-PS
Размер файла : 1024 Мбайт
Продолжительность : 33 м.
Общий поток : 4277 Кбит/сек
Видео
Идентификатор : 224 (0xE0)
Формат : MPEG Video
Версия формата : Version 2
Профиль формата : Main@Main
Параметр BVOP формата : Да
Параметр матрицы формата : Выборочная
Параметр GOP формата : Variable
Продолжительность : 33 м.
Битрейт : 4000 Кбит/сек
Ширина : 720 пикселей
Высота : 576 пикселей
Соотношение сторон : 4:3
Частота кадров : 25,000 кадров/сек
Стандарт вещания : PAL
Цветовое пространство : YUV
Субдискретизация насыщенности : 4:2:0
Битовая глубина : 8 бит
Тип развёртки : Чересстрочная
Порядок развёртки : Нижнее поле первое
Метод сжатия : С потерями
Бит/(Пиксели*Кадры) : 0.386
Временной код первого кадра : 00:00:00:00
Оригинал временного кода : Group of pictures header
Размер потока : 958 Мбайт (94%)
Аудио
Идентификатор : 189 (0xBD)-128 (0x80)
Формат : AC-3
Формат/Информация : Audio Coding 3
Расширение режима : CM (complete main)
Параметр Endianness формата : Big
Режим смешивания : DVD-Video
Продолжительность : 33 м.
Вид битрейта : Постоянный
Битрейт : 192 Кбит/сек
Каналы : 2 канала
Расположение каналов : Front: L R
Частота : 48,0 КГц
Битовая глубина : 16 бит
Метод сжатия : С потерями
Размер потока : 46,0 Мбайт (4%)
Меню
Общее
Полное имя : C:\Users\9a33\Desktop\Премия FUZZ 2007\VIDEO_TS\VTS_03_2.VOB
Формат : MPEG-PS
Размер файла : 1024 Мбайт
Продолжительность : 33 м.
Общий поток : 4277 Кбит/сек
Видео
Идентификатор : 224 (0xE0)
Формат : MPEG Video
Версия формата : Version 2
Профиль формата : Main@Main
Параметр BVOP формата : Да
Параметр матрицы формата : Выборочная
Параметр GOP формата : M=3, N=15
Продолжительность : 33 м.
Битрейт : 4000 Кбит/сек
Ширина : 720 пикселей
Высота : 576 пикселей
Соотношение сторон : 4:3
Частота кадров : 25,000 кадров/сек
Стандарт вещания : PAL
Цветовое пространство : YUV
Субдискретизация насыщенности : 4:2:0
Битовая глубина : 8 бит
Тип развёртки : Чересстрочная
Порядок развёртки : Нижнее поле первое
Метод сжатия : С потерями
Бит/(Пиксели*Кадры) : 0.386
Временной код первого кадра : 00:33:28:14
Оригинал временного кода : Group of pictures header
Размер потока : 957 Мбайт (94%)
Аудио
Идентификатор : 189 (0xBD)-128 (0x80)
Формат : AC-3
Формат/Информация : Audio Coding 3
Расширение режима : CM (complete main)
Параметр Endianness формата : Big
Режим смешивания : DVD-Video
Продолжительность : 33 м.
Вид битрейта : Постоянный
Битрейт : 192 Кбит/сек
Каналы : 2 канала
Расположение каналов : Front: L R
Частота : 48,0 КГц
Битовая глубина : 16 бит
Метод сжатия : С потерями
Задержка видео : -432 мс.
Размер потока : 46,0 Мбайт (4%)
Меню
Общее
Полное имя : C:\Users\9a33\Desktop\Премия FUZZ 2007\VIDEO_TS\VTS_03_3.VOB
Формат : MPEG-PS
Размер файла : 808 Мбайт
Продолжительность : 26 м.
Общий поток : 4277 Кбит/сек
Видео
Идентификатор : 224 (0xE0)
Формат : MPEG Video
Версия формата : Version 2
Профиль формата : Main@Main
Параметр BVOP формата : Да
Параметр матрицы формата : Выборочная
Параметр GOP формата : Variable
Продолжительность : 26 м.
Битрейт : 4000 Кбит/сек
Ширина : 720 пикселей
Высота : 576 пикселей
Соотношение сторон : 4:3
Частота кадров : 25,000 кадров/сек
Стандарт вещания : PAL
Цветовое пространство : YUV
Субдискретизация насыщенности : 4:2:0
Битовая глубина : 8 бит
Тип развёртки : Чересстрочная
Порядок развёртки : Нижнее поле первое
Метод сжатия : С потерями
Бит/(Пиксели*Кадры) : 0.386
Временной код первого кадра : 01:06:56:24
Оригинал временного кода : Group of pictures header
Размер потока : 756 Мбайт (93%)
Аудио
Идентификатор : 189 (0xBD)-128 (0x80)
Формат : AC-3
Формат/Информация : Audio Coding 3
Расширение режима : CM (complete main)
Параметр Endianness формата : Big
Режим смешивания : DVD-Video
Продолжительность : 26 м.
Вид битрейта : Постоянный
Битрейт : 192 Кбит/сек
Каналы : 2 канала
Расположение каналов : Front: L R
Частота : 48,0 КГц
Битовая глубина : 16 бит
Метод сжатия : С потерями
Задержка видео : -400 мс.
Размер потока : 36,3 Мбайт (4%)
Меню

Дополнительная информация

Проект реализован на средства гранта Санкт-Петербурга.
Не для продажи. Только для подписчиков.
Приложение к октябрьскому (2007) номеру FUZZa.

Полиграфия

Скриншоты меню и доп. материалов

             
Скриншоты:            Время раздачи: 24/7 в октябре 2013
Other forum [Profile] [PM]
Display posts from previous:    
Reply to topic

The time now is: Today 21:56

All times are GMT + 3 Hours



You cannot post new topics in this forum
You cannot reply to topics in this forum
You cannot edit your posts in this forum
You cannot delete your posts in this forum
You cannot vote in polls in this forum
You cannot attach files in this forum
You cannot download files in this forum