Сегодня идет свободное скачивание без начисления Download

Симпсоны / The Simpsons / Сезон: 25 / Серии: 1 из (?) (Мэтт Гроунинг) [2013, мультсериал, комедия, WEB-DL 720p] DVO (NewStudio)

Ответить на тему
 
Автор
Сообщение

Omen ®

Стаж: 5 лет 1 месяц

Сообщений: 190529

Торрент-статистика

Пост 05-Окт-2013 22:28

[Цитировать]

Симпсоны / The Simpsons
Страна: США
Жанр: мультсериал, комедия
Продолжительность: 00:22:00
Год выпуска: 2013
Перевод: Профессиональный (двухголосый закадровый)
Русские субтитры: нет
Режиссёр: Мэтт Гроунинг
Роли озвучивали: Дэн Кастелланета, Джули Кавнер, Нэнси Картрайт, Ярдли Смит, Гарри Ширер, Хэнк Азария, Памела Хейден, Тресс МакНилл, Карл Видерготт, Мэгги Росвэлл
Описание: Самый длинный мультсериал в истории американского телевидения, длящийся 25 сезонов. Это насыщенное сатирой (в том числе социальной) шоу высмеивает многие клише и стереотипы, в частности — стиль жизни «среднестатистического американца», особенности мировых культур в целом, знаменитостей и даже само телевидение и телеканал «Fox»; не стесняется затрагивать такие скользкие вопросы, как политика и религия: в частности, поднимались темы однополых браков, борьбы дарвинистов и креационистов, войны в Ираке.
Доп. информация: Озвучка: Двухголосное профессиональное закадровое озвучание
Перевод: Александр Митраков
Семпл: http://multi-up.com/909312
Качество: WEB-DL 720p
Формат: MKV
Видео: 3 698 kb/s, 1280x718 (16:9), 23,976 fps
Аудио: RU: 48.0 KHz, 6 ch, 384 Kbps, AC-3
Аудио 2: ENG: 48.0 KHz, 6 ch, 384 Kbps, AC-3
Субтитры: Отсутствуют

Список серий

01. Гомерленд / Homerland

MediaInfo

ОбщееПолное имя : D:\Cinema\Симпсоны\25 Сезон\s25e01 Земля Гомера.mkvФормат : MatroskaВерсия формата : Version 4 / Version 2Размер файла : 744 МбайтПродолжительность : 22 м.Общий поток : 4557 Кбит/секДата кодирования : UTC 2013-10-01 17:01:01Программа кодирования : mkvmerge v6.4.1 ('Omega Point') built on Sep 16 2013 22:05:10Библиотека кодирования : libebml v1.3.0 + libmatroska v1.4.1
ВидеоИдентификатор : 1Формат : AVCФормат/Информация : Advanced Video CodecПрофиль формата : High@L3.1Параметр CABAC формата : НетПараметр ReFrames формата : 2 кадраИдентификатор кодека : V_MPEG4/ISO/AVCПродолжительность : 22 м.Битрейт : 3698 Кбит/секШирина : 1280 пикселейВысота : 718 пикселейСоотношение сторон : 16:9Режим частоты кадров : ПостоянныйЧастота кадров : 23,976 кадра/секЦветовое пространство : YUVСубдискретизация насыщенности : 4:2:0Битовая глубина : 8 битТип развёртки : ПрогрессивнаяБит/(Пиксели*Кадры) : 0.168Размер потока : 604 Мбайт (81%)Язык : EnglishDefault : ДаForced : НетОсновные цвета : BT.709Характеристики трансфера : BT.709Коэффициенты матрицы : BT.709
Аудио #1Идентификатор : 2Формат : AC-3Формат/Информация : Audio Coding 3Расширение режима : CM (complete main)Параметр Endianness формата : BigИдентификатор кодека : A_AC3Продолжительность : 22 м.Вид битрейта : ПостоянныйБитрейт : 384 Кбит/секКаналы : 6 каналовРасположение каналов : Front: L C R, Side: L R, LFEЧастота : 48,0 КГцБитовая глубина : 16 битМетод сжатия : С потерямиРазмер потока : 62,7 Мбайт (8%)Язык : RussianDefault : ДаForced : Нет
Аудио #2Идентификатор : 3Формат : AC-3Формат/Информация : Audio Coding 3Расширение режима : CM (complete main)Параметр Endianness формата : BigИдентификатор кодека : A_AC3Продолжительность : 22 м.Вид битрейта : ПостоянныйБитрейт : 384 Кбит/секКаналы : 6 каналовРасположение каналов : Front: L C R, Side: L R, LFEЧастота : 48,0 КГцБитовая глубина : 16 битМетод сжатия : С потерямиРазмер потока : 62,7 Мбайт (8%)Язык : EnglishDefault : НетForced : Нет

Скриншоты

Внимание! Раздача ведётся путём добавления новых серий

Внимание! Раздача ведётся путём добавления новых серий; при каждом добавлении создаётся новый торрент. Чтобы начать докачку новой серии, пользователям необходимо сделать следующее:
(1) остановить скачивание,
(2) удалить старый торрент у себя из клиента (старые серии удалять не надо),
(3) скачать новый торрент и запустить его у себя в клиенте вместо старого, при этом указать клиенту путь в старую папку куда и должно происходить скачивание новых серий.
Ваш клиент при этом должен произвести хеширование (проверку) старой папки (если не производит сам - помогите ему сделать это), и будет докачивать только те серии которых у вас ещё нет. Старые серии при этом не удаляются, а продолжают раздаваться!
Eсли вы уже удалили старые серии, то предотвратить повторную закачку старых серий можно, отжав галочку в соответствующих местах при запуске нового торрента. По возможности, желательно не удалять старые серии как можно дольше чтобы релизёр не столько продолжал раздавать старые серии, а смог сконцентрироваться на новых.
Вне форума [Профиль] [ЛС]
Показать сообщения:    
Ответить на тему

Текущее время: Сегодня 08:53

Часовой пояс: GMT + 3



Вы не можете начинать темы
Вы не можете отвечать на сообщения
Вы не можете редактировать свои сообщения
Вы не можете удалять свои сообщения
Вы не можете голосовать в опросах
Вы не можете прикреплять файлы к сообщениям
Вы не можете скачивать файлы