Today is a free download without charge Download

Portnoy, Sheehan, MacAlpine, Sherinian - Live In Tokyo [2013] DVD9

Reply to topic
 
Author
Message

UndegraundMen ®

Longevity: 6 years 9 months

Posts: 25145

Торрент-статистика

Post 03-Oct-2013 04:19

[Quote]

Portnoy, Sheehan, MacAlpine, Sherinian - Live In Tokyo [2013] DVD9- Год выпуска: 2013
Жанр: Rock
Описание фильма:
Live In Tokyo – это концерт новой супергруппы PSMS, состоявшийся в концертном зале Zepp Tokyo 14 ноября 2012 года. В группу входят: один из лучших барабанщиков современности Mike Portnoy (Dream Theater, The Winery Dogs, Transatlantic), басист Billy Sheehan (Talas, Mr. Big, David Lee Roth), гитарист Tony MacAlpine и клавишник Derek Sherinian (Black Country Communion, Dream Theater, Billy Idol). Этот 95-минутный концерт представляет множество инструментальных композиций из карьеры каждого участника группы, включая «Shy Boy» из группы Talas Билли Шихана, «The Stranger» Тони МакАлпина, «Apocalypse 1470 B.C.» Дерека Шериниана и «A Change Of Seasons: The Crimson Sunrise» от Dream Theater.
Режиссер: Чикара Танака / Chikara Tanaka
Состав:
Tony MacAlpine- соло-гитара,
Mike Portnoy- барабаны,
Billy Sheehan- бас-гитара,
Derek Sherinian- клавишные
Продолжительность: 01:45:10
Качество видео: DVD9
Видео: NTSC 16:9 (720х480); MPEG Video; 9800 kbps VBR; 29,970 fps
Аудио1: AC-3; 192 kbps; 48 kHz; 2 ch
Аудио2: AC-3; 448 kbps; 48 kHz; 5 ch
Аудио3: DTS; 755 kbps; 48 kHz; 6 ch

Треклист

Треклист:
01. A Change Of Seasons: I. The Crimson Sunrise
02. Acid Rain
03. The Stranger
04. Stratus
05. Apocalypse 1470 B.C.
06. Tony MacAlpine Guitar Solo
07. Been Here Before
08. Birds Of Prey (Billy s Boogie) / Billy Sheehan Bass Solo
09. The Farandole
10. The Pump
11. Mike Portnoy Drum Intro
12. Nightmare City
13. Hell s Kitchen
14. Derek Sherinian Keyboard Solo
15. Lines In The Sand
16. Shy Boy
Bonus Feature:
Behind The Scenes
Скриншоты:

Меню

   
       

Обложка, диск

     

Буклет

           

DVDInfo

DVDInfo:
Title: 4Perf.in_Tokyo
Size: 5.75 Gb ( 6 028 780,00 KBytes ) - DVD-9
Enabled regions: 1, 2, 3, 4, 5, 6, 7, 8
VTS_01 :
Play Length: 00:00:06
Video: NTSC 4:3 (720x480) VBR
VTS_02 :
Play Length: 00:00:10
Video: NTSC 4:3 (720x480) VBR
VTS_03 :
Play Length: 00:00:20
Video: NTSC 16:9 (720x480) VBR, Auto Letterboxed
Audio:
  • Not specified (Dolby AC3, 2 ch)
    VTS_04 :
    Play Length: 01:34:32
    Video: NTSC 16:9 (720x480) VBR, Auto Letterboxed
    Audio:
  • English (Dolby AC3, 2 ch)
  • English (Dolby AC3, 5 ch)
  • English (DTS, 6 ch)
    VTS_05 :
    Play Length: 00:10:37
    Video: NTSC 16:9 (720x480) VBR, Auto Letterboxed
    Audio:
  • Not specified (Dolby AC3, 2 ch)
    Subtitles:
  • English
  • Espanol
  • Francais

MediaInfo

General
Complete name : E:\Uploads\Video\Rock\Live in Tokyo\4Perf.in_Tokyo\VIDEO_TS\VTS_04_1.VOB
Format : MPEG-PS
File size : 1 024 MiB
Duration : 18mn 27s
Overall bit rate mode : Variable
Overall bit rate : 7 752 Kbps
Video
ID : 224 (0xE0)
Format : MPEG Video
Format version : Version 2
Format profile : Main@Main
Format settings, BVOP : Yes
Format settings, Matrix : Custom
Format settings, GOP : Variable
Duration : 18mn 27s
Bit rate mode : Variable
Bit rate : 6 203 Kbps
Maximum bit rate : 9 800 Kbps
Width : 720 pixels
Height : 480 pixels
Display aspect ratio : 16:9
Frame rate : 29.970 fps
Standard : NTSC
Color space : YUV
Chroma subsampling : 4:2:0
Bit depth : 8 bits
Scan type : Interlaced
Scan order : Top Field First
Compression mode : Lossy
Bits/(Pixel*Frame) : 0.599
Time code of first frame : 01:00:00;00
Time code source : Group of pictures header
Stream size : 819 MiB (80%)
Audio #1
ID : 189 (0xBD)-128 (0x80)
Format : AC-3
Format/Info : Audio Coding 3
Mode extension : CM (complete main)
Format settings, Endianness : Big
Muxing mode : DVD-Video
Duration : 18mn 27s
Bit rate mode : Constant
Bit rate : 192 Kbps
Channel(s) : 2 channels
Channel positions : Front: L R
Sampling rate : 48.0 KHz
Bit depth : 16 bits
Compression mode : Lossy
Stream size : 25.4 MiB (2%)
Audio #2
ID : 189 (0xBD)-129 (0x81)
Format : AC-3
Format/Info : Audio Coding 3
Mode extension : CM (complete main)
Format settings, Endianness : Big
Muxing mode : DVD-Video
Duration : 18mn 27s
Bit rate mode : Constant
Bit rate : 448 Kbps
Channel(s) : 5 channels
Channel positions : Front: L C R, Side: L R
Sampling rate : 48.0 KHz
Bit depth : 16 bits
Compression mode : Lossy
Stream size : 59.2 MiB (6%)
Audio #3
ID : 189 (0xBD)-138 (0x8A)
Format : DTS
Format/Info : Digital Theater Systems
Mode : 16
Format settings, Endianness : Big
Muxing mode : DVD-Video
Duration : 18mn 27s
Bit rate mode : Constant
Bit rate : 755 Kbps
Channel(s) : 6 channels
Channel positions : Front: L C R, Side: L R, LFE
Sampling rate : 48.0 KHz
Bit depth : 16 bits
Compression mode : Lossy
Stream size : 99.6 MiB (10%)
Menu
Время раздачи: 24/7
Other forum [Profile] [PM]
Display posts from previous:    
Reply to topic

The time now is: Today 01:20

All times are GMT + 3 Hours



You cannot post new topics in this forum
You cannot reply to topics in this forum
You cannot edit your posts in this forum
You cannot delete your posts in this forum
You cannot vote in polls in this forum
You cannot attach files in this forum
You cannot download files in this forum