Today is a free download without charge Download

Серия \"SOLOS: The Jazz Sessions\" - John Abercrombie (2010) DVD5

Reply to topic
 
Author
Message

UndegraundMen ®

Longevity: 6 years 10 months

Posts: 25145

Торрент-статистика

Post 30-Aug-2013 05:06

[Quote]

Серия "SOLOS: The Jazz Sessions" - John Abercrombie (2010) DVD5- Год выпуска: 2010
Жанр: Progressive jazz, jazz fusion, post-bop, hard bop, avant-garde jazz
Официальный сайт: http://solosjazz.com/
Описание:
Серия "SOLOS: The Jazz Sessions" выпускается Канадcкой Original Spin Media и состоит из трех сезонов. В каждом по тринадцать ДВД-дисков. Все диски состоят из полных треков, интервью и закулисных кадров. Разработанная для домашнего просмотра, SOLOS предлагает Вам место в первом ряду в зале с уникальными джазовыми исполнителями. Снято в потрясающем HDTV с множеством движущихся камер (здесь - ДВД формат).
Треклист:
01. Open Land
02. Improvisation #3 (Improvisation on How Deep Is the Ocean)
03. Alice in Wonderland
04. Jazz Folk
05. Convolution
06. A Nice Idea
+ bonus
(00:03:17)
Остальные релизы серии
Продолжительность: 00:47:58
Качество видео: DVD5
Видеокодек: MPEG-2
Битрейт видео: ~6019 kb/s
Размер кадра: 720x480 (16:9) NTSC
Аудиокодек: AC3 2.0
Битрейт аудио: 320 kb/s, 48.0 KHz
Скриншоты:              

Скриншоты меню:

   

MediaInfo

General
Complete name : G:\Torrents\Solos\John Abercrombie - Solos - The Jazz Sessions\VIDEO_TS\VTS_02_2.VOB
Format : MPEG-PS
File size : 1 024 MiB
Duration : 22mn 8s
Overall bit rate mode : Variable
Overall bit rate : 6 468 Kbps
Video
ID : 224 (0xE0)
Format : MPEG Video
Format version : Version 2
Format profile : Main@Main
Format settings, BVOP : Yes
Format settings, Matrix : Custom
Format settings, GOP : Variable
Duration : 22mn 8s
Bit rate mode : Variable
Bit rate : 6 019 Kbps
Maximum bit rate : 8 500 Kbps
Width : 720 pixels
Height : 480 pixels
Display aspect ratio : 16:9
Frame rate : 29.970 fps
Standard : NTSC
Color space : YUV
Chroma subsampling : 4:2:0
Bit depth : 8 bits
Scan type : Progressive
Compression mode : Lossy
Bits/(Pixel*Frame) : 0.581
Stream size : 953 MiB (93%)
Audio
ID : 189 (0xBD)-128 (0x80)
Format : AC-3
Format/Info : Audio Coding 3
Mode extension : CM (complete main)
Format settings, Endianness : Big
Muxing mode : DVD-Video
Duration : 22mn 8s
Bit rate mode : Constant
Bit rate : 320 Kbps
Channel(s) : 2 channels
Channel positions : Front: L R
Sampling rate : 48.0 KHz
Bit depth : 16 bits
Compression mode : Lossy
Delay relative to video : -176ms
Stream size : 50.7 MiB (5%)
Menu
Время раздачи: 18:00 - 23:00
Other forum [Profile] [PM]
Similar theme
Forum Topic Author Torrent Replies Last Post
./templates/default/images/folder_dl.gif TBS (пошаговые стратегии) Heroes of Might and Magic III Complete (Collector’s Edition) + HD mod / Герои меча и магии 3: Платиновая серия + HD mod [L] [RUS / RUS] (2003) (3.45f) Omen
1 | 0

1 | 3905

46

2015-01-25 21:29
Valdemar-olvi Latest
./templates/default/images/folder_dl.gif Кулинария Серия: "Помощники на кухне" - (Мультиварка; Мультиварка. Готовим для детей; Мультиварка. Здоровое питание) [2012-2013, PDF, RUS] Обновлено 10.11.2015г. Omen
0 | 1

0 | 708

0

2015-11-11 15:00
Omen Latest
./templates/default/images/folder_dl.gif Кулинария Серия «Энциклопедия заготовок» - Чернышева Т. - 8 книг [2014-2015, PDF, RUS] Omen
0 | 1

0 | 560

0

2015-11-24 09:41
Omen Latest
./templates/default/images/folder_dl.gif Медицина и Здоровье Книжная серия | Если врачи не помогли [7 книг. Обновляемая] (2015-2016) [FB2] moralis
1 | 0

0 | 1269

4

2016-03-15 22:28
moralis Latest
./templates/default/images/folder_dl.gif Приключения, детектив, боевик, триллер Agatha Christie. ЗОЛОТАЯ КОЛЛЕКЦИЯ (книжная серия) [2014-...., DjVu/EPUB/FB2/PDF, RUS] Omen
1 | 0

0 | 1469

7

2016-12-26 01:00
Omen Latest
./templates/default/images/folder_dl.gif Кулинария Дубровская С., Костина Д. и др. - Книжная серия: Быстро, вкусно, просто, 35 томов [2006-2010гг., PDF, DJVU, FB2, RUS] Anonymous
0 | 1

0 | 8162

3

2017-03-28 18:00
Anonymous Latest
./templates/default/images/folder_dl.gif Разножанровые коллекции книг и библиотеки Книжная серия | Юмор - это серьезно [14 книг] (2016-2018) [FB2] }{@R0N
1 | 0

0 | 863

2

2018-07-31 21:25
}{@R0N Latest
./templates/default/images/folder_dl.gif Разножанровые коллекции книг и библиотеки Книжная серия | «А. Сапковский с иллюстрациями Д. Гордеева» [8 книг] (2015-2017) [FB2] }{@R0N
1 | 0

0 | 1222

4

2019-01-14 20:27
}{@R0N Latest
./templates/default/images/folder_dl.gif Разножанровые коллекции книг и библиотеки Книжная серия | Зарубежная классика [164 книги] (1998-2019) [FB2] }{@R0N
1 | 0

0 | 616

0

2019-06-19 17:17
}{@R0N Latest
./templates/default/images/folder_dl.gif Отечественные cериалы Форс-мажор / 1-10 серия из 10 / (Александр Жигалкин) [2019, Комедия, криминал, SATRip] Орлов Владимир
0 | 1

0 | 300

0

2019-09-13 18:46
Орлов Владимир Latest
Display posts from previous:    
Reply to topic

The time now is: Today 02:56

All times are GMT + 3 Hours



You cannot post new topics in this forum
You cannot reply to topics in this forum
You cannot edit your posts in this forum
You cannot delete your posts in this forum
You cannot vote in polls in this forum
You cannot attach files in this forum
You cannot download files in this forum