Today is a free download without charge Download

Специалист | Основы дизайна [converted] [2011] PCRec

Reply to topic
 
Author
Message

Omen ®

Longevity: 8 years 5 months

Posts: 181087

Торрент-статистика

Post 22-Jul-2013 14:47

[Quote]

Специалист
Основы дизайна [converted]
- Автор (режиссер): Специалист
Название: Основы дизайна [converted]
Год выпуска: 2011
Жанр: Видеокурсы
Продолжительность: 25:37:21
Качество видео: PCRec
Видеокодек: WMV9
Битрейт видео: ~30 кадров в секунду
Размер кадра: 1024х768
Аудиокодек: WMA
Битрейт аудио: Н/Д моно 44100 Гц
Описание:
Чтобы стать хорошим дизайнером, мало знать технические особенности различных графических компьютерных пакетов. Для этого необходимо понимать теоретические основы дизайна, его основные правила, уметь их применять.
Хотите научиться работать с цветом, создавать интересные и привлекательные композиции, делать проекты в различных стилях с учётом психологических характеристик заказчика? Всему этому Вы научитесь на курсе «Основы дизайна»! Начните изучать искусство дизайна с него, и он станет основой Вашего успеха!
Преподаватель: Новикова Надежда Германовна
Скриншоты:
       

Дополнительная информация:

Цель курса:
Изучить теоретические основы визуального дизайна и практические приемы работы с цветом, композицией различного уровня сложности. Результаты, полученные на этом курсе, понадобятся специалистам в различных сферах дизайна, в области современных технологий и приемах компьютерной графики. Овладение программой данного курса позволяет работать в сфере коммерческого и художественного дизайна, в веб-дизайне, помогает при решении любых специфических задач, связанных с дизайном.
Курс «Основы дизайна» является базовым для дальнейшего освоения всего арсенала современных программ компьютерной графики и дизайна, таких как Photoshop, CorelDRAW, QuarkXPress, 3ds MAX и других.
По окончании курса Вы будете уметь:
  • Создавать дизайн-объекты в различных сферах дизайна, используя методику дизайн-проектирования
  • Использовать художественные средства композиции, цветоведения, светового дизайна для решения задач дизайнерского проектирования для дальнейшего использования в веб-дизайне, дизайне рекламы, дизайне интерьера и компьютерной графики
  • Создавать дизайн-проект интерьера (основы)
  • Применять правила светотени для создания реалистичного изображения объектов
  • Создавать наглядные изображения (аксонометрия, перспектива) объектов дизайна
  • Строить перспективу интерьера
  • Создавать произведения эффективного дизайна рекламы

Содержание курса

Модуль 1. Введение. Дизайн как художественное проектирование эстетического облика среды
Определение целей и задач курса. Понятийно-терминологический аппарат
Социальный язык дизайна
Взаимосвязь индивидуальности человека и дизайна. Физиологическое и психологическое воздействие дизайн-объектов
Развитие творческих способностей слушателей курса
Психологические особенности заказчика. Тип личности. Темперамент (цветовые предпочтения). Восприятие и его закономерности в работе дизайнера. Внимание и работа с его видами
Модуль 2. Цвет и стиль в дизайне
Психологические и оптические характеристики цвета и его воздействие на человека. Внеокулярное зрение
Символика цвета. Цвет в дизайне – исторический экскурс
Колориметрия. Типология и структура цветовой гармонии. Основы цветоведения: спектральный круг Ньютона, Гете. Цветовое тело Оствальда, Манселла
Цвет как средство композиции
Знакомство и работа с художественными материалами (акварель, гуашь, пастель, уголь, сангина и т.д.)
Закономерности развития стиля. Формула стиля. Стили – колоссы, стили – реакции
Цвет и форма в Древнем Египте. Использование в современном дизайне
Творческие задания
Модуль 3. Стратегия и тактика дизайна
Специфика проектно-художественной деятельности дизайнера
Дизайн-инструментарий. Техника выполнения рисунка, графики, росписи, коллажа, макета и т.д.
Проектный язык дизайнера
Методы визуализации дизайн-идеи: форэскиз, клаузура, дизайн-проект
Древняя Греция и Древний Рим. Использование элементов античной культуры в современном дизайне
Оптический иллюзионизм Древнего Рима. Фантомы восприятия пространства и формы
Творческие задания
Модуль 4. Основы дизайн-композиции
Контраст, нюанс, симметрия и асимметрия, ритм как средства композиции
Виды контрастов
Пространственные отношения. Баланс и законы равновесия композиции
Статичная и динамичная композиция
Статика и динамика в Средневековой культуре. Использование в современном дизайне
Творческие задания
Модуль 5. Художественные средства композиции
Пропорции. Золотое сечение и его использование в дизайне, живописи, архитектуре
Зоны композиции
Степень эффективности рекламы в различных зонах композиции
Композиционный, оптический и другие центры композиции
Компоновка элементов композиции. Правило «трех частей»
Ренессанс. Наука о светотени и перспективе
Творческие задания
Модуль 6. Гармония в композиции
Принципы гармоничной композиции
Гармония взаимоотношения фигуры и фона. Схемы
Контрформа и ее использование в дизайне
Барокко, рококо, принципы работы с формой. Использование в современном дизайне
Творческие задания
Модуль 7. Дизайн предметной среды
Объемно-графические средства моделирования объектов дизайна
Эргономика. Четыре группы комплексных эргономических показателей: антропометрические, психологические, физиологические, гигиенические
Классицизм, ампир. Бидермайер, эклектика, неостили. Использование в современном дизайне
Творческие задания
Модуль 8. Творческая лаборатория
Особенности проектирования среды
Стили 20 века. Модерн, конструктивизм как новый подход к формообразованию. Баухауз
Современные стили: хай-тек, пост-модерн, транс-хай-тек, хай-тач, этностиль и т.д.
Дизайн и современные технологии
Творческие задания

MediaInfo

DIZ_1.wmv

General
Complete name : H:\diz\DIZ_1.wmv
Format : Windows Media
File size : 235 MiB
Duration : 6h 25mn
Overall bit rate mode : Variable
Overall bit rate : 85.4 Kbps
Maximum Overall bit rate : 5 991 Kbps
Encoded date : UTC 2013-07-19 13:27:19.173
Writing application : 5.7 Build 1172 / GoToMeeting
BitRateFrom the writer : 79286
Audio samples : 280795
Video samples : 16159
recording time : Пт, 19 июл 2013 19:14:54 Московское время (лето)
Video
ID : 2
Format : VC-1
Format profile : MP@HL
Codec ID : WMV3
Codec ID/Info : Windows Media Video 9
Codec ID/Hint : WMV3
Description of the codec : Windows Media Video 9
Duration : 6h 25mn
Bit rate mode : Variable
Bit rate : 1 341 Kbps
Width : 1 024 pixels
Height : 768 pixels
Display aspect ratio : 4:3
Frame rate : 29.970 fps
Bit depth : 8 bits
Scan type : Progressive
Compression mode : Lossy
Bits/(Pixel*Frame) : 0.057
Stream size : 3.61 GiB
Audio
ID : 1
Format : WMA
Format version : Version 2
Codec ID : 161
Codec ID/Info : Windows Media Audio
Description of the codec : Windows Media Audio 9.2 - 48 kbps, 44 kHz, mono 1-pass CBR
Duration : 6h 25mn
Bit rate mode : Constant
Bit rate : 48.0 Kbps
Channel(s) : 1 channel
Sampling rate : 44.1 KHz
Bit depth : 16 bits
Stream size : 132 MiB (56%)

DIZ_2.wmv

General
Complete name : H:\diz\DIZ_2.wmv
Format : Windows Media
File size : 105 MiB
Duration : 3h 19mn
Overall bit rate mode : Variable
Overall bit rate : 73.5 Kbps
Maximum Overall bit rate : 5 477 Kbps
Encoded date : UTC 2013-07-18 20:50:20.370
Writing application : 5.7 Build 1172 / GoToMeeting
BitRateFrom the writer : 67210
Audio samples : 142876
Video samples : 5856
recording time : Пт, 19 июл 2013 01:16:15 Московское время (лето)
Video
ID : 2
Format : VC-1
Format profile : MP@HL
Codec ID : WMV3
Codec ID/Info : Windows Media Video 9
Codec ID/Hint : WMV3
Description of the codec : Windows Media Video 9
Bit rate mode : Variable
Bit rate : 1 176 Kbps
Width : 1 024 pixels
Height : 768 pixels
Display aspect ratio : 4:3
Frame rate mode : Variable
Nominal frame rate : 29.970 fps
Bit depth : 8 bits
Scan type : Progressive
Compression mode : Lossy
Audio
ID : 1
Format : WMA
Format version : Version 2
Codec ID : 161
Codec ID/Info : Windows Media Audio
Description of the codec : Windows Media Audio 9.2 - 48 kbps, 44 kHz, mono 1-pass CBR
Duration : 3h 19mn
Bit rate mode : Constant
Bit rate : 48.0 Kbps
Channel(s) : 1 channel
Sampling rate : 44.1 KHz
Bit depth : 16 bits
Stream size : 68.4 MiB (65%)

DIZ_3.wmv

General
Complete name : H:\diz\DIZ_3.wmv
Format : Windows Media
File size : 108 MiB
Duration : 2h 55mn
Overall bit rate mode : Variable
Overall bit rate : 86.1 Kbps
Maximum Overall bit rate : 4 070 Kbps
Encoded date : UTC 2013-07-18 21:21:13.410
Writing application : 5.7 Build 1172 / GoToMeeting
BitRateFrom the writer : 79803
Audio samples : 129580
Video samples : 13621
recording time : Пт, 19 июл 2013 02:25:58 Московское время (лето)
Video
ID : 2
Format : VC-1
Format profile : MP@HL
Codec ID : WMV3
Codec ID/Info : Windows Media Video 9
Codec ID/Hint : WMV3
Description of the codec : Windows Media Video 9
Bit rate mode : Variable
Bit rate : 738 Kbps
Width : 1 024 pixels
Height : 768 pixels
Display aspect ratio : 4:3
Frame rate mode : Variable
Nominal frame rate : 29.970 fps
Bit depth : 8 bits
Scan type : Progressive
Compression mode : Lossy
Audio
ID : 1
Format : WMA
Format version : Version 2
Codec ID : 161
Codec ID/Info : Windows Media Audio
Description of the codec : Windows Media Audio 9.2 - 48 kbps, 44 kHz, mono 1-pass CBR
Duration : 2h 55mn
Bit rate mode : Constant
Bit rate : 48.0 Kbps
Channel(s) : 1 channel
Sampling rate : 44.1 KHz
Bit depth : 16 bits
Stream size : 60.3 MiB (56%)

DIZ_4.wmv

General
Complete name : H:\diz\DIZ_4.wmv
Format : Windows Media
File size : 169 MiB
Duration : 4h 19mn
Overall bit rate mode : Variable
Overall bit rate : 90.9 Kbps
Maximum Overall bit rate : 6 678 Kbps
Encoded date : UTC 2013-07-18 22:32:19.231
Writing application : 5.7 Build 1172 / GoToMeeting
BitRateFrom the writer : 84576
Audio samples : 188367
Video samples : 18525
recording time : Пт, 19 июл 2013 03:53:56 Московское время (лето)
Video
ID : 2
Format : VC-1
Format profile : MP@HL
Codec ID : WMV3
Codec ID/Info : Windows Media Video 9
Codec ID/Hint : WMV3
Description of the codec : Windows Media Video 9
Duration : 4h 19mn
Bit rate mode : Variable
Bit rate : 923 Kbps
Width : 1 024 pixels
Height : 768 pixels
Display aspect ratio : 4:3
Frame rate : 29.970 fps
Bit depth : 8 bits
Scan type : Progressive
Compression mode : Lossy
Bits/(Pixel*Frame) : 0.039
Stream size : 1.68 GiB
Audio
ID : 1
Format : WMA
Format version : Version 2
Codec ID : 161
Codec ID/Info : Windows Media Audio
Description of the codec : Windows Media Audio 9.2 - 48 kbps, 44 kHz, mono 1-pass CBR
Duration : 4h 19mn
Bit rate mode : Constant
Bit rate : 48.0 Kbps
Channel(s) : 1 channel
Sampling rate : 44.1 KHz
Bit depth : 16 bits
Stream size : 89.3 MiB (53%)

DIZ_5.wmv

General
Complete name : H:\diz\DIZ_5.wmv
Format : Windows Media
File size : 243 MiB
Duration : 5h 28mn
Overall bit rate mode : Variable
Overall bit rate : 103 Kbps
Maximum Overall bit rate : 10.6 Mbps
Encoded date : UTC 2013-07-19 11:21:55.242
Writing application : 5.7 Build 1172 / GoToMeeting
BitRateFrom the writer : 97416
Audio samples : 239243
Video samples : 15647
recording time : Пт, 19 июл 2013 16:50:03 Московское время (лето)
Video
ID : 2
Format : VC-1
Format profile : MP@HL
Codec ID : WMV3
Codec ID/Info : Windows Media Video 9
Codec ID/Hint : WMV3
Description of the codec : Windows Media Video 9
Duration : 5h 28mn
Bit rate mode : Variable
Bit rate : 1 865 Kbps
Width : 1 024 pixels
Height : 768 pixels
Display aspect ratio : 4:3
Frame rate : 29.970 fps
Bit depth : 8 bits
Scan type : Progressive
Compression mode : Lossy
Bits/(Pixel*Frame) : 0.079
Stream size : 4.28 GiB
Audio
ID : 1
Format : WMA
Format version : Version 2
Codec ID : 161
Codec ID/Info : Windows Media Audio
Description of the codec : Windows Media Audio 9.2 - 48 kbps, 44 kHz, mono 1-pass CBR
Duration : 5h 28mn
Bit rate mode : Constant
Bit rate : 48.0 Kbps
Channel(s) : 1 channel
Sampling rate : 44.1 KHz
Bit depth : 16 bits
Stream size : 113 MiB (46%)

DIZ_6.wmv

General
Complete name : H:\diz\DIZ_6.wmv
Format : Windows Media
File size : 67.8 MiB
Duration : 1h 27mn
Overall bit rate mode : Variable
Overall bit rate : 109 Kbps
Maximum Overall bit rate : 4 774 Kbps
Encoded date : UTC 2013-07-18 19:46:37.422
Writing application : 5.7 Build 1172 / GoToMeeting
BitRateFrom the writer : 102933
Audio samples : 65570
Video samples : 7771
recording time : Пт, 19 июл 2013 00:29:40 Московское время (лето)
Video
ID : 2
Format : VC-1
Format profile : MP@HL
Codec ID : WMV3
Codec ID/Info : Windows Media Video 9
Codec ID/Hint : WMV3
Description of the codec : Windows Media Video 9
Duration : 1h 27mn
Bit rate mode : Variable
Bit rate : 1 103 Kbps
Width : 1 024 pixels
Height : 768 pixels
Display aspect ratio : 4:3
Frame rate : 29.970 fps
Bit depth : 8 bits
Scan type : Progressive
Compression mode : Lossy
Bits/(Pixel*Frame) : 0.047
Stream size : 688 MiB
Audio
ID : 1
Format : WMA
Format version : Version 2
Codec ID : 161
Codec ID/Info : Windows Media Audio
Description of the codec : Windows Media Audio 9.2 - 48 kbps, 44 kHz, mono 1-pass CBR
Duration : 1h 27mn
Bit rate mode : Constant
Bit rate : 48.0 Kbps
Channel(s) : 1 channel
Sampling rate : 44.1 KHz
Bit depth : 16 bits
Stream size : 29.9 MiB (44%)

Проблемные видео

DIZ_6.wmv
Пробовать открывать разными плеерами.
Other forum [Profile] [PM]
Similar theme
Forum Topic Author Torrent Replies Last Post
./templates/default/images/folder_dl.gif Техническая и научно-популярная литература Соловцов Е.В. - Российские боеприпасы Специальные бесшумные и 9-мм пистолетные патроны [2015, PDF, RUS] Omen
1 | 0

0 | 452

2

2015-05-29 00:13
Omen Latest
./templates/default/images/folder_dl.gif Техническая и научно-популярная литература Светлана Филатова | Специальная методика чтения лиц и эмоций (2017) [FB2] }{@R0N
1 | 0

0 | 6331

7

2017-07-21 16:44
}{@R0N Latest
./templates/default/images/folder_dl.gif Обучающее видео Специалист | VMware vSphere. Уровень 1. Внедрение и эксплуатация vSphere 5.5 (2015) PCRec moralis
1 | 0

0 | 6729

18

2017-09-27 21:12
moralis Latest
./templates/default/images/folder_dl.gif Обучающее видео Специалист | VMware vSphere. Уровень 1. Внедрение и эксплуатация vSphere 6.5 (2017) PCRec [H.264/720p-LQ] }{@R0N
1 | 0

0 | 5355

32

2017-10-07 23:03
}{@R0N Latest
Display posts from previous:    
Reply to topic

The time now is: Today 07:00

All times are GMT + 3 Hours



You cannot post new topics in this forum
You cannot reply to topics in this forum
You cannot edit your posts in this forum
You cannot delete your posts in this forum
You cannot vote in polls in this forum
You cannot attach files in this forum
You cannot download files in this forum