Today is a free download without charge Download

(Pop) МакSим - Другая Реальность - 2013, FLAC (tracks), lossless

Reply to topic
 
Author
Message

sergej644 ®

Gender:

Longevity: 7 years 3 months

Posts: 636

Торрент-статистика

Post 09-Jul-2013 09:58

[Quote]

-МакSим - Другая Реальность- Страна: Россия
Жанр: Pop
Год выпуска: 2013
Формат: FLAC (tracks)
Битрейт аудио: lossless
Продолжительность: 00:45:22
-Трэклист:-01. Другая реальность 03:55)
02. Ты говоришь 02:57)
03. Это же я 03:28)
04. Мой мир 03:56)
05. Осколки 03:47)
06. Небо-самолеты 03:05)
07. Я буду жить 03:44)
08. Как летать 03:14)
09. Кошка 03:36)
10. Дождь 03:43)
11. Так просто 03:32)
12. Я - ветер 03:08)
13. Poster Girl 03:12)
--Доп. информация: -

лог создания рипа

Код:
Exact Audio Copy V1.0 beta 3 from 29. August 2011
EAC extraction logfile from 11. June 2013, 0:04
МакSим / Другая реальность
Used drive  : TSSTcorpCDDVDW SH-222BB   Adapter: 2  ID: 0
Read mode               : Secure
Utilize accurate stream : Yes
Defeat audio cache      : Yes
Make use of C2 pointers : No
Read offset correction                      : 6
Overread into Lead-In and Lead-Out          : No
Fill up missing offset samples with silence : Yes
Delete leading and trailing silent blocks   : No
Null samples used in CRC calculations       : Yes
Used interface                              : Native Win32 interface for Win NT & 2000
Gap handling                                : Appended to previous track
Used output format              : User Defined Encoder
Selected bitrate                : 896 kBit/s
Quality                         : High
Add ID3 tag                     : Yes
Command line compressor         : C:\Program Files (x86)\Exact Audio Copy\Flac\flac.exe
Additional command line options :  -V -8 -T "Genre=%genre%" -T "Artist=%artist%" -T "Title=%title%" -T "Album=%albumtitle%" -T "Date=%year%" -T "Tracknumber=%tracknr%" -T "Comment=%comment%" %source%
TOC of the extracted CD
     Track |   Start  |  Length  | Start sector | End sector
    ---------------------------------------------------------
        1  |  0:00.00 |  3:55.25 |         0    |    17649
        2  |  3:55.25 |  2:57.73 |     17650    |    30997
        3  |  6:53.23 |  3:28.28 |     30998    |    46625
        4  | 10:21.51 |  3:56.14 |     46626    |    64339
        5  | 14:17.65 |  3:47.05 |     64340    |    81369
        6  | 18:04.70 |  3:05.49 |     81370    |    95293
        7  | 21:10.44 |  3:44.13 |     95294    |   112106
        8  | 24:54.57 |  3:14.02 |    112107    |   126658
        9  | 28:08.59 |  3:36.12 |    126659    |   142870
       10  | 31:44.71 |  3:43.57 |    142871    |   159652
       11  | 35:28.53 |  3:32.73 |    159653    |   175625
       12  | 39:01.51 |  3:08.69 |    175626    |   189794
       13  | 42:10.45 |  3:12.20 |    189795    |   204214
Track  1
     Filename C:\Users\Mr. Di Fazio\Desktop\Новая папка (3)\01. Другая реальность.wav
     Pre-gap length  0:00:02.00
     Peak level 99.7 %
     Extraction speed 4.2 X
     Track quality 100.0 %
     Test CRC 1C6729A8
     Copy CRC 1C6729A8
     Copy OK
Track  2
     Filename C:\Users\Mr. Di Fazio\Desktop\Новая папка (3)\02. Ты говоришь.wav
     Peak level 99.8 %
     Extraction speed 3.4 X
     Track quality 99.9 %
     Test CRC 1E2197D5
     Copy CRC 1E2197D5
     Copy OK
Track  3
     Filename C:\Users\Mr. Di Fazio\Desktop\Новая папка (3)\03. Это же я.wav
     Peak level 99.9 %
     Extraction speed 4.9 X
     Track quality 100.0 %
     Test CRC 1E58E90C
     Copy CRC 1E58E90C
     Copy OK
Track  4
     Filename C:\Users\Mr. Di Fazio\Desktop\Новая папка (3)\04. Мой мир.wav
     Peak level 100.0 %
     Extraction speed 5.4 X
     Track quality 100.0 %
     Test CRC 95DD4811
     Copy CRC 95DD4811
     Copy OK
Track  5
     Filename C:\Users\Mr. Di Fazio\Desktop\Новая папка (3)\05. Осколки.wav
     Peak level 100.0 %
     Extraction speed 4.5 X
     Track quality 99.9 %
     Test CRC 8EBB3C31
     Copy CRC 8EBB3C31
     Copy OK
Track  6
     Filename C:\Users\Mr. Di Fazio\Desktop\Новая папка (3)\06. Небо-самолеты.wav
     Peak level 100.0 %
     Extraction speed 5.8 X
     Track quality 100.0 %
     Test CRC E8A52223
     Copy CRC E8A52223
     Copy OK
Track  7
     Filename C:\Users\Mr. Di Fazio\Desktop\Новая папка (3)\07. Я буду жить.wav
     Peak level 100.0 %
     Extraction speed 6.2 X
     Track quality 100.0 %
     Test CRC CF722AC6
     Copy CRC CF722AC6
     Copy OK
Track  8
     Filename C:\Users\Mr. Di Fazio\Desktop\Новая папка (3)\08. Как летать.wav
     Peak level 99.9 %
     Extraction speed 6.3 X
     Track quality 100.0 %
     Test CRC 81E4DB41
     Copy CRC 81E4DB41
     Copy OK
Track  9
     Filename C:\Users\Mr. Di Fazio\Desktop\Новая папка (3)\09. Кошка.wav
     Peak level 100.0 %
     Extraction speed 6.6 X
     Track quality 100.0 %
     Test CRC FE441688
     Copy CRC FE441688
     Copy OK
Track 10
     Filename C:\Users\Mr. Di Fazio\Desktop\Новая папка (3)\10. Дождь.wav
     Peak level 100.0 %
     Extraction speed 5.5 X
     Track quality 99.9 %
     Test CRC 47F0D54B
     Copy CRC 47F0D54B
     Copy OK
Track 11
     Filename C:\Users\Mr. Di Fazio\Desktop\Новая папка (3)\11. Так просто.wav
     Peak level 99.6 %
     Extraction speed 7.1 X
     Track quality 100.0 %
     Test CRC 7CF8D74A
     Copy CRC 7CF8D74A
     Copy OK
Track 12
     Filename C:\Users\Mr. Di Fazio\Desktop\Новая папка (3)\12. Я - ветер.wav
     Peak level 99.9 %
     Extraction speed 5.5 X
     Track quality 99.9 %
     Test CRC FA06CB31
     Copy CRC FA06CB31
     Copy OK
Track 13
     Filename C:\Users\Mr. Di Fazio\Desktop\Новая папка (3)\13. Poster Girl.wav
     Peak level 99.5 %
     Extraction speed 5.7 X
     Track quality 99.9 %
     Test CRC 16591C6A
     Copy CRC 16591C6A
     Copy OK
No errors occurred
End of status report

содержание индексной карты *cue

Код:
REM GENRE Pop
REM DATE 2013
REM DISCID A60AA20D
REM COMMENT "ExactAudioCopy v1.0b3"
PERFORMER "МакSим"
TITLE "Другая реальность"
FILE "01 Другая реальность.wav" WAVE
  TRACK 01 AUDIO
    TITLE "Другая реальность"
    PERFORMER "МакSим"
    INDEX 01 00:00:00
FILE "02 Ты говоришь.wav" WAVE
  TRACK 02 AUDIO
    TITLE "Ты говоришь"
    PERFORMER "МакSим"
    INDEX 01 00:00:00
FILE "03 Это же я.wav" WAVE
  TRACK 03 AUDIO
    TITLE "Это же я"
    PERFORMER "МакSим"
    INDEX 01 00:00:00
FILE "04 Мой мир.wav" WAVE
  TRACK 04 AUDIO
    TITLE "Мой мир"
    PERFORMER "МакSим"
    INDEX 01 00:00:00
FILE "05 Осколки.wav" WAVE
  TRACK 05 AUDIO
    TITLE "Осколки"
    PERFORMER "МакSим"
    INDEX 01 00:00:00
FILE "06 Небо-самолеты.wav" WAVE
  TRACK 06 AUDIO
    TITLE "Небо-самолеты"
    PERFORMER "МакSим"
    INDEX 01 00:00:00
FILE "07 Я буду жить.wav" WAVE
  TRACK 07 AUDIO
    TITLE "Я буду жить"
    PERFORMER "МакSим"
    INDEX 01 00:00:00
FILE "08 Как летать.wav" WAVE
  TRACK 08 AUDIO
    TITLE "Как летать"
    PERFORMER "МакSим"
    INDEX 01 00:00:00
FILE "09 Кошка.wav" WAVE
  TRACK 09 AUDIO
    TITLE "Кошка"
    PERFORMER "МакSим"
    INDEX 01 00:00:00
FILE "10 Дождь.wav" WAVE
  TRACK 10 AUDIO
    TITLE "Дождь"
    PERFORMER "МакSим"
    INDEX 01 00:00:00
FILE "11 Так просто.wav" WAVE
  TRACK 11 AUDIO
    TITLE "Так просто"
    PERFORMER "МакSим"
    INDEX 01 00:00:00
FILE "12 Я - ветер.wav" WAVE
  TRACK 12 AUDIO
    TITLE "Я - ветер"
    PERFORMER "МакSим"
    INDEX 01 00:00:00
FILE "13 Poster Girl.wav" WAVE
  TRACK 13 AUDIO
    TITLE "Poster Girl"
    PERFORMER "МакSим"
    INDEX 01 00:00:00
- --

_________________
Other forum [Profile] [PM]
Display posts from previous:    
Reply to topic

The time now is: Today 02:55

All times are GMT + 3 Hours



You cannot post new topics in this forum
You cannot reply to topics in this forum
You cannot edit your posts in this forum
You cannot delete your posts in this forum
You cannot vote in polls in this forum
You cannot attach files in this forum
You cannot download files in this forum